  0
SECTION
  2
HEADER
  9
$ACADVER
  1
AC1015
  9
$ACADMAINTVER
 70
               6
  9
$DWGCODEPAGE
  3
ANSI_932
  9
$INSBASE
 10
0.0
 20
0.0
 30
0.0
  9
$EXTMIN
 10
-1274.544490379765
 20
-2336.1123090019451
 30
-29.701066666666666
  9
$EXTMAX
 10
2325.4555096202348
 20
3013.5316015843573
 30
29.701066666666666
  9
$LIMMIN
 10
0.0
 20
0.0
  9
$LIMMAX
 10
0.0
 20
0.0
  9
$ORTHOMODE
 70
               0
  9
$REGENMODE
 70
               1
  9
$FILLMODE
 70
               1
  9
$QTEXTMODE
 70
               0
  9
$MIRRTEXT
 70
               1
  9
$LTSCALE
 40
101.59999999999999
  9
$ATTMODE
 70
               1
  9
$TEXTSIZE
 40
0.2
  9
$TRACEWID
 40
1.0
  9
$TEXTSTYLE
  7
Standard
  9
$CLAYER
  8
0
  9
$CELTYPE
  6
Continuous
  9
$CECOLOR
 62
             256
  9
$CELTSCALE
 40
1.0
  9
$DISPSILH
 70
               0
  9
$DIMSCALE
 40
1.0
  9
$DIMASZ
 40
50.012451171875
  9
$DIMEXO
 40
39.999999999999993
  9
$DIMDLI
 40
4.9999999999999991
  9
$DIMRND
 40
0.0
  9
$DIMDLE
 40
0.0
  9
$DIMEXE
 40
39.999999999999993
  9
$DIMTP
 40
0.0
  9
$DIMTM
 40
0.0
  9
$DIMTXT
 40
76.012586805556552
  9
$DIMCEN
 40
0.0
  9
$DIMTSZ
 40
0.0
  9
$DIMTOL
 70
               0
  9
$DIMLIM
 70
               0
  9
$DIMTIH
 70
               0
  9
$DIMTOH
 70
               0
  9
$DIMSE1
 70
               0
  9
$DIMSE2
 70
               0
  9
$DIMTAD
 70
               1
  9
$DIMZIN
 70
              11
  9
$DIMBLK
  1
VW_EMPTYARROW
  9
$DIMASO
 70
               1
  9
$DIMSHO
 70
               1
  9
$DIMPOST
  1
<>
  9
$DIMAPOST
  1
[]
  9
$DIMALT
 70
               0
  9
$DIMALTD
 70
               2
  9
$DIMALTF
 40
1.0
  9
$DIMLFAC
 40
1.0
  9
$DIMTOFL
 70
               1
  9
$DIMTVP
 40
0.0
  9
$DIMTIX
 70
               1
  9
$DIMSOXD
 70
               0
  9
$DIMSAH
 70
               0
  9
$DIMBLK1
  1

  9
$DIMBLK2
  1

  9
$DIMSTYLE
  2
HIBINO
  9
$DIMCLRD
 70
               0
  9
$DIMCLRE
 70
               0
  9
$DIMCLRT
 70
               0
  9
$DIMTFAC
 40
1.0
  9
$DIMGAP
 40
0.4999999999999999
  9
$DIMJUST
 70
               0
  9
$DIMSD1
 70
               0
  9
$DIMSD2
 70
               0
  9
$DIMTOLJ
 70
               1
  9
$DIMTZIN
 70
              11
  9
$DIMALTZ
 70
              11
  9
$DIMALTTZ
 70
              11
  9
$DIMUPT
 70
               0
  9
$DIMDEC
 70
               2
  9
$DIMTDEC
 70
               2
  9
$DIMALTU
 70
               2
  9
$DIMALTTD
 70
               2
  9
$DIMTXSTY
  7
ＭＳ ゴシック
  9
$DIMAUNIT
 70
               0
  9
$DIMADEC
 70
               0
  9
$DIMALTRND
 40
0.0
  9
$DIMAZIN
 70
               0
  9
$DIMDSEP
 70
              46
  9
$DIMATFIT
 70
               0
  9
$DIMFRAC
 70
               2
  9
$DIMLDRBLK
  1

  9
$DIMLUNIT
 70
               2
  9
$DIMLWD
 70
              -2
  9
$DIMLWE
 70
              -2
  9
$DIMTMOVE
 70
               0
  9
$LUNITS
 70
               2
  9
$LUPREC
 70
               4
  9
$SKETCHINC
 40
0.1
  9
$FILLETRAD
 40
0.0
  9
$AUNITS
 70
               0
  9
$AUPREC
 70
               0
  9
$MENU
  1
acad
  9
$ELEVATION
 40
0.0
  9
$PELEVATION
 40
0.0
  9
$THICKNESS
 40
0.0
  9
$LIMCHECK
 70
               0
  9
$CHAMFERA
 40
0.0
  9
$CHAMFERB
 40
0.0
  9
$CHAMFERC
 40
0.0
  9
$CHAMFERD
 40
0.0
  9
$SKPOLY
 70
               0
  9
$TDCREATE
 40
2459565.478263889
  9
$TDUCREATE
 40
0.000000000
  9
$TDUPDATE
 40
2459565.478263889
  9
$TDUUPDATE
 40
0.000000000
  9
$TDINDWG
 40
0.0000000000
  9
$TDUSRTIMER
 40
0.0000000000
  9
$USRTIMER
 70
               1
  9
$ANGBASE
 50
0.0
  9
$ANGDIR
 70
               0
  9
$PDMODE
 70
               1
  9
$PDSIZE
 40
-2.0
  9
$PLINEWID
 40
0.0
  9
$SPLFRAME
 70
               0
  9
$SPLINETYPE
 70
               6
  9
$SPLINESEGS
 70
               8
  9
$HANDSEED
  5
3E2
  9
$SURFTAB1
 70
               6
  9
$SURFTAB2
 70
               6
  9
$SURFTYPE
 70
               6
  9
$SURFU
 70
               6
  9
$SURFV
 70
               6
  9
$UCSBASE
  2

  9
$UCSNAME
  2

  9
$UCSORG
 10
0.0
 20
0.0
 30
0.0
  9
$UCSXDIR
 10
1.0
 20
0.0
 30
0.0
  9
$UCSYDIR
 10
0.0
 20
1.0
 30
0.0
  9
$UCSORTHOREF
  2

  9
$UCSORTHOVIEW
 70
               0
  9
$UCSORGTOP
 10
0.0
 20
0.0
 30
0.0
  9
$UCSORGBOTTOM
 10
0.0
 20
0.0
 30
0.0
  9
$UCSORGLEFT
 10
0.0
 20
0.0
 30
0.0
  9
$UCSORGRIGHT
 10
0.0
 20
0.0
 30
0.0
  9
$UCSORGFRONT
 10
0.0
 20
0.0
 30
0.0
  9
$UCSORGBACK
 10
0.0
 20
0.0
 30
0.0
  9
$PUCSBASE
  2

  9
$PUCSNAME
  2

  9
$PUCSORG
 10
0.0
 20
0.0
 30
0.0
  9
$PUCSXDIR
 10
1.0
 20
0.0
 30
0.0
  9
$PUCSYDIR
 10
0.0
 20
1.0
 30
0.0
  9
$PUCSORTHOREF
  2

  9
$PUCSORTHOVIEW
 70
               0
  9
$PUCSORGTOP
 10
0.0
 20
0.0
 30
0.0
  9
$PUCSORGBOTTOM
 10
0.0
 20
0.0
 30
0.0
  9
$PUCSORGLEFT
 10
0.0
 20
0.0
 30
0.0
  9
$PUCSORGRIGHT
 10
0.0
 20
0.0
 30
0.0
  9
$PUCSORGFRONT
 10
0.0
 20
0.0
 30
0.0
  9
$PUCSORGBACK
 10
0.0
 20
0.0
 30
0.0
  9
$USERI1
 70
               0
  9
$USERI2
 70
               0
  9
$USERI3
 70
               0
  9
$USERI4
 70
               0
  9
$USERI5
 70
               0
  9
$USERR1
 40
0.0
  9
$USERR2
 40
0.0
  9
$USERR3
 40
0.0
  9
$USERR4
 40
0.0
  9
$USERR5
 40
0.0
  9
$WORLDVIEW
 70
               1
  9
$SHADEDGE
 70
               3
  9
$SHADEDIF
 70
              70
  9
$TILEMODE
 70
               1
  9
$MAXACTVP
 70
              64
  9
$PINSBASE
 10
0.0
 20
0.0
 30
0.0
  9
$PLIMCHECK
 70
               0
  9
$PEXTMIN
 10
1.0000000000000000E+20
 20
1.0000000000000000E+20
 30
1.0000000000000000E+20
  9
$PEXTMAX
 10
-1.0000000000000000E+20
 20
-1.0000000000000000E+20
 30
-1.0000000000000000E+20
  9
$PLIMMIN
 10
0.0
 20
0.0
  9
$PLIMMAX
 10
12.0
 20
9.0
  9
$UNITMODE
 70
               0
  9
$VISRETAIN
 70
               0
  9
$PLINEGEN
 70
               1
  9
$PSLTSCALE
 70
               0
  9
$TREEDEPTH
 70
            3020
  9
$CMLSTYLE
  2
Standard
  9
$CMLJUST
 70
               0
  9
$CMLSCALE
 40
1.0
  9
$PROXYGRAPHICS
 70
               0
  9
$MEASUREMENT
 70
               1
  9
$CELWEIGHT
370
               0
  9
$ENDCAPS
280
               0
  9
$JOINSTYLE
280
               0
  9
$LWDISPLAY
290
               0
  9
$INSUNITS
 70
               4
  9
$HYPERLINKBASE
  1

  9
$STYLESHEET
  1

  9
$XEDIT
290
               1
  9
$CEPSNTYPE
380
               0
  9
$PSTYLEMODE
290
               1
  9
$FINGERPRINTGUID
  2

  9
$VERSIONGUID
  2

  9
$EXTNAMES
290
               1
  9
$PSVPSCALE
 40
0.0
  0
ENDSEC
  0
SECTION
  2
CLASSES
  0
CLASS
  1
LWPOLYLINE
  2
AcDbPolyline
  3
AutoCAD 2000
 90
        0
280
               0
281
               1
  0
CLASS
  1
IMAGE
  2
AcDbRasterImage
  3
ISM
 90
      127
280
               0
281
               1
  0
CLASS
  1
OLE2FRAME
  2
AcDbOle2Frame
  3
AutoCAD 2000
 90
        0
280
               0
281
               1
  0
CLASS
  1
HATCH
  2
AcDbHatch
  3
AutoCAD 2000
 90
        0
280
               0
281
               1
  0
CLASS
  1
DICTIONARYVAR
  2
AcDbDictionaryVar
  3
AutoCAD 2000
 90
        0
280
               0
281
               0
  0
CLASS
  1
RASTERVARIABLES
  2
AcDbRasterVariables
  3
ISM
 90
        0
280
               0
281
               0
  0
CLASS
  1
IMAGEDEF
  2
AcDbRasterImageDef
  3
ISM
 90
        0
280
               0
281
               0
  0
CLASS
  1
IMAGEDEF_REACTOR
  2
AcDbRasterImageDefReactor
  3
ISM
 90
        1
280
               0
281
               0
  0
CLASS
  1
IDBUFFER
  2
AcDbIdBuffer
  3
AutoCAD 2000
 90
        0
280
               0
281
               0
  0
CLASS
  1
SPATIAL_FILTER
  2
AcDbSpatialFilter
  3
AutoCAD 2000
 90
        0
280
               0
281
               0
  0
CLASS
  1
XRECORD
  2
AcDbXrecord
  3
AutoCAD 2000
 90
        0
280
               0
281
               0
  0
CLASS
  1
SORTENTSTABLE
  2
AcDbSortentsTable
  3
AutoCAD 2000
 90
        0
280
               0
281
               0
  0
CLASS
  1
LAYER_INDEX
  2
AcDbLayerIndex
  3
AutoCAD 2000
 90
        0
280
               0
281
               0
  0
CLASS
  1
SPATIAL_INDEX
  2
AcDbSpatialIndex
  3
AutoCAD 2000
 90
        0
280
               0
281
               0
  0
CLASS
  1
OBJECT_PTR
  2
CAseDLPNTableRecord
  3
"ASE-LPNTableRecord"
 90
        1
280
               0
281
               0
  0
CLASS
  1
LAYOUT
  2
AcDbLayout
  3
AutoCAD 2000
 90
        0
280
               0
281
               0
  0
CLASS
  1
PLOTSETTINGS
  2
AcDbPlotSettings
  3
AutoCAD 2000
 90
        0
280
               0
281
               0
  0
CLASS
  1
ACDBDICTIONARYWDFLT
  2
AcDbDictionaryWithDefault
  3
AutoCAD 2000
 90
        0
280
               0
281
               0
  0
CLASS
  1
ACDBPLACEHOLDER
  2
AcDbPlaceHolder
  3
AutoCAD 2000
 90
        0
280
               0
281
               0
  0
CLASS
  1
VBA_PROJECT
  2
AcDbVbaProject
  3
acadvba
 90
        0
280
               0
281
               0
  0
CLASS
  1
WIPEOUT
  2
AcDbWipeout
  3
WipeOut|AutoCAD Express Tool|expresstools@autodesk.com
 90
      127
280
               0
281
               1
  0
CLASS
  1
WIPEOUTVARIABLES
  2
AcDbWipeoutVariables
  3
WipeOut|AutoCAD Express Tool|expresstools@autodesk.com
 90
        0
280
               0
281
               0
  0
CLASS
  1
RTEXT
  2
RText
  3
RText|AutoCAD Express Tool|expresstools@autodesk.com
 90
        0
280
               0
281
               1
  0
CLASS
  1
ARCALIGNEDTEXT
  2
AcDbArcAlignedText
  3
ATEXT|AutoCAD Express Tool|expresstools@autodesk.com
 90
        0
280
               0
281
               1
  0
ENDSEC
  0
SECTION
  2
TABLES
  0
TABLE
  2
VPORT
  5
7
100
AcDbSymbolTable
 70
               1
  0
VPORT
  5
15
100
AcDbSymbolTableRecord
100
AcDbViewportTableRecord
  2
*ACTIVE
 70
               0
 10
0.0
 20
0.0
 11
1.0
 21
1.0
 12
525.45550962023503
 22
338.70964629120635
 13
0.0
 23
0.0
 14
1.0
 24
1.0
 15
0.0
 25
0.0
 16
0.0
 26
0.0
 36
1.0
 17
0.0
 27
0.0
 37
0.0
 40
5349.6439105863028
 41
0.688564
 42
50.0
 43
0.0
 44
0.0
 50
0.0
 51
0.0
 71
               0
 72
            2000
 73
               1
 74
               1
 75
               0
 76
               0
 77
               0
 78
               0
281
               0
 65
               0
110
0.0
120
0.0
130
0.0
111
1.0
121
0.0
131
0.0
112
0.0
122
1.0
132
0.0
345
0
346
0
 79
               0
146
0.0
  0
ENDTAB
  0
TABLE
  2
LTYPE
  5
4
100
AcDbSymbolTable
 70
              13
  0
LTYPE
  5
11
100
AcDbSymbolTableRecord
100
AcDbLinetypeTableRecord
  2
ByBlock
 70
              64
  3

 72
              65
 73
               0
 40
0.0
  0
LTYPE
  5
12
100
AcDbSymbolTableRecord
100
AcDbLinetypeTableRecord
  2
ByLayer
 70
              64
  3

 72
              65
 73
               0
 40
0.0
  0
LTYPE
  5
13
100
AcDbSymbolTableRecord
100
AcDbLinetypeTableRecord
  2
Continuous
 70
              64
  3
Solid line
 72
              65
 73
               0
 40
0.0
  0
LTYPE
  5
33
100
AcDbSymbolTableRecord
100
AcDbLinetypeTableRecord
  2
STYLE_01
 70
               0
  3

 72
              65
 73
               4
 40
0.2
 49
0.125
 74
               0
 49
-0.025
 74
               0
 49
0.025
 74
               0
 49
-0.025
 74
               0
  0
LTYPE
  5
34
100
AcDbSymbolTableRecord
100
AcDbLinetypeTableRecord
  2
STYLE_02
 70
               0
  3

 72
              65
 73
               2
 40
0.694427490234375
 49
0.4860687255859375
 74
               0
 49
-0.2083587646484375
 74
               0
  0
LTYPE
  5
35
100
AcDbSymbolTableRecord
100
AcDbLinetypeTableRecord
  2
STYLE_03
 70
               0
  3

 72
              65
 73
               2
 40
1.25
 49
1.0416412353515625
 74
               0
 49
-0.2083587646484375
 74
               0
  0
LTYPE
  5
36
100
AcDbSymbolTableRecord
100
AcDbLinetypeTableRecord
  2
STYLE_04
 70
               0
  3

 72
              65
 73
               2
 40
1.5277099609375
 49
1.319427490234375
 74
               0
 49
-0.208282470703125
 74
               0
  0
LTYPE
  5
37
100
AcDbSymbolTableRecord
100
AcDbLinetypeTableRecord
  2
STYLE_05
 70
               0
  3

 72
              65
 73
               2
 40
0.208282470703125
 49
0.069427490234375
 74
               0
 49
-0.13885498046875
 74
               0
  0
LTYPE
  5
38
100
AcDbSymbolTableRecord
100
AcDbLinetypeTableRecord
  2
STYLE_06
 70
               0
  3

 72
              65
 73
               4
 40
1.0416412353515625
 49
0.625
 74
               0
 49
-0.208282470703125
 74
               0
 49
0.069427490234375
 74
               0
 49
-0.1389312744140625
 74
               0
  0
LTYPE
  5
39
100
AcDbSymbolTableRecord
100
AcDbLinetypeTableRecord
  2
STYLE_07
 70
               0
  3

 72
              65
 73
               6
 40
1.875
 49
0.625
 74
               0
 49
-0.208282470703125
 74
               0
 49
0.625
 74
               0
 49
-0.2083587646484375
 74
               0
 49
0.069427490234375
 74
               0
 49
-0.1389312744140625
 74
               0
  0
LTYPE
  5
3A
100
AcDbSymbolTableRecord
100
AcDbLinetypeTableRecord
  2
STYLE_08
 70
               0
  3

 72
              65
 73
               6
 40
1.25
 49
0.625
 74
               0
 49
-0.208282470703125
 74
               0
 49
0.069427490234375
 74
               0
 49
-0.1389312744140625
 74
               0
 49
0.069427490234375
 74
               0
 49
-0.1389312744140625
 74
               0
  0
LTYPE
  5
3B
100
AcDbSymbolTableRecord
100
AcDbLinetypeTableRecord
  2
STYLE_09
 70
               0
  3

 72
              65
 73
               4
 40
5.0
 49
3.75
 74
               0
 49
-0.2777862548828125
 74
               0
 49
0.694427490234375
 74
               0
 49
-0.2777862548828125
 74
               0
  0
LTYPE
  5
3C
100
AcDbSymbolTableRecord
100
AcDbLinetypeTableRecord
  2
STYLE_10
 70
               0
  3

 72
              65
 73
               6
 40
5.9375
 49
3.75
 74
               0
 49
-0.2777862548828125
 74
               0
 49
0.694427490234375
 74
               0
 49
-0.2777862548828125
 74
               0
 49
0.625
 74
               0
 49
-0.3125
 74
               0
  0
ENDTAB
  0
TABLE
  2
LAYER
  5
2
100
AcDbSymbolTable
 70
              14
  0
LAYER
  5
14
100
AcDbSymbolTableRecord
100
AcDbLayerTableRecord
  2
0
 70
               0
 62
               7
  6
Continuous
290
               1
370
               0
390
1D
  0
LAYER
  5
3D
100
AcDbSymbolTableRecord
100
AcDbLayerTableRecord
  2
DATA
 70
               0
 62
               7
  6
Continuous
290
               1
370
               0
390
1D
  0
LAYER
  5
3E
100
AcDbSymbolTableRecord
100
AcDbLayerTableRecord
  2
一般
 70
               0
 62
               7
  6
Continuous
290
               1
370
               0
390
1D
  0
LAYER
  5
3F
100
AcDbSymbolTableRecord
100
AcDbLayerTableRecord
  2
寸法
 70
               0
 62
               7
  6
Continuous
290
               1
370
               0
390
1D
  0
LAYER
  5
40
100
AcDbSymbolTableRecord
100
AcDbLayerTableRecord
  2
HIBINO-BASE
 70
               0
 62
               7
  6
Continuous
290
               1
370
               0
390
1D
  0
LAYER
  5
41
100
AcDbSymbolTableRecord
100
AcDbLayerTableRecord
  2
SPEC
 70
               0
 62
               7
  6
Continuous
290
               1
370
               0
390
1D
  0
LAYER
  5
42
100
AcDbSymbolTableRecord
100
AcDbLayerTableRecord
  2
DIMNSIONS
 70
               0
 62
               7
  6
Continuous
290
               1
370
               0
390
1D
  0
LAYER
  5
43
100
AcDbSymbolTableRecord
100
AcDbLayerTableRecord
  2
Layer1
 70
               0
 62
               3
  6
Continuous
290
               1
370
               0
390
1D
  0
LAYER
  5
44
100
AcDbSymbolTableRecord
100
AcDbLayerTableRecord
  2
2D
 70
               0
 62
              82
  6
Continuous
290
               1
370
               0
390
1D
  0
LAYER
  5
45
100
AcDbSymbolTableRecord
100
AcDbLayerTableRecord
  2
FORMAT
 70
               0
 62
               7
  6
Continuous
290
               1
370
               0
390
1D
  0
LAYER
  5
46
100
AcDbSymbolTableRecord
100
AcDbLayerTableRecord
  2
Defpoints
 70
               0
 62
               7
  6
Continuous
290
               0
370
               0
390
1D
  0
LAYER
  5
47
100
AcDbSymbolTableRecord
100
AcDbLayerTableRecord
  2
5in
 70
               0
 62
               7
  6
Continuous
290
               1
370
               0
390
1D
  0
LAYER
  5
48
100
AcDbSymbolTableRecord
100
AcDbLayerTableRecord
  2
MD_Visible
 70
               0
 62
               7
  6
Continuous
290
               1
370
               0
390
1D
  0
LAYER
  5
49
100
AcDbSymbolTableRecord
100
AcDbLayerTableRecord
  2
MD_Visible Narrow
 70
               0
 62
               7
  6
Continuous
290
               1
370
               0
390
1D
  0
ENDTAB
  0
TABLE
  2
STYLE
  5
3
100
AcDbSymbolTable
 70
               2
  0
STYLE
  5
17
100
AcDbSymbolTableRecord
100
AcDbTextStyleTableRecord
  2
Standard
 70
               0
 40
0.0
 41
1.0
 50
0.0
 71
               0
 42
0.0
  3
txt
  4
BIGFONT.SHX
  0
STYLE
  5
32
100
AcDbSymbolTableRecord
100
AcDbTextStyleTableRecord
  2
ＭＳ ゴシック
 70
               0
 40
0.0
 41
1.0
 50
0.0
 71
               0
 42
0.0
  3

  4
ＭＳ ゴシック
1001
ACAD
1000
ＭＳ ゴシック
1071
        0
  0
ENDTAB
  0
TABLE
  2
VIEW
  5
5
100
AcDbSymbolTable
 70
               0
  0
ENDTAB
  0
TABLE
  2
UCS
  5
6
100
AcDbSymbolTable
 70
               0
  0
ENDTAB
  0
TABLE
  2
APPID
  5
8
100
AcDbSymbolTable
 70
               1
  0
APPID
  5
16
100
AcDbSymbolTableRecord
100
AcDbRegAppTableRecord
  2
ACAD
 70
               0
  0
ENDTAB
  0
TABLE
  2
DIMSTYLE
  5
9
100
AcDbSymbolTable
 70
               2
100
AcDbDimStyleTable
 71
               0
  0
DIMSTYLE
105
18
100
AcDbSymbolTableRecord
100
AcDbDimStyleTableRecord
  2
Standard
 70
               0
  3

  4

 40
1.0
 41
0.18
 42
0.0625
 43
0.38
 44
0.18
 45
0.0
 46
0.0
 47
0.0
 48
0.0
 71
               0
 72
               0
 73
               1
 74
               1
 75
               0
 76
               0
 77
               0
 78
               0
 79
               0
140
0.18
141
0.09
142
0.0
143
25.399999999999999
144
1.0
145
0.0
146
1.0
147
0.09
148
0.0
170
               0
171
               2
172
               0
173
               0
174
               0
175
               0
176
               0
177
               0
178
               0
179
               0
271
               4
272
               4
273
               2
274
               2
275
               0
276
               0
277
               2
278
              46
279
               0
280
               0
281
               0
282
               0
283
               1
284
               0
285
               0
286
               0
288
               0
289
               3
340
17
341
0
342
0
343
0
344
0
371
              -2
372
              -2
  0
DIMSTYLE
105
53
100
AcDbSymbolTableRecord
100
AcDbDimStyleTableRecord
  2
HIBINO
 70
               0
  3
<>
  4
[]
 40
1.0
 41
50.012451171875
 42
39.999999999999993
 43
4.9999999999999991
 44
39.999999999999993
 45
0.0
 46
0.0
 47
0.0
 48
0.0
 71
               0
 72
               0
 73
               0
 74
               0
 75
               0
 76
               0
 77
               1
 78
              11
 79
               0
140
76.012586805556552
141
0.0
142
0.0
143
1.0
144
1.0
145
0.0
146
1.0
147
0.4999999999999999
148
0.0
170
               0
171
               2
172
               1
173
               0
174
               1
175
               0
176
               0
177
               0
178
               0
179
               0
271
               2
272
               2
273
               2
274
               2
275
               0
276
               2
277
               2
278
              46
279
               0
280
               0
281
               0
282
               0
283
               1
284
              11
285
              11
286
              11
288
               0
289
               0
340
32
341
4A
342
4A
343
0
344
0
371
              -2
372
              -2
  0
ENDTAB
  0
TABLE
  2
BLOCK_RECORD
  5
1
100
AcDbSymbolTable
 70
              15
  0
BLOCK_RECORD
  5
A
100
AcDbSymbolTableRecord
100
AcDbBlockTableRecord
  2
*MODEL_SPACE
340
20
  0
BLOCK_RECORD
  5
B
100
AcDbSymbolTableRecord
100
AcDbBlockTableRecord
  2
*PAPER_SPACE
340
21
  0
BLOCK_RECORD
  5
4A
100
AcDbSymbolTableRecord
100
AcDbBlockTableRecord
  2
VW_EMPTYARROW
340
0
  0
BLOCK_RECORD
  5
24
100
AcDbSymbolTableRecord
100
AcDbBlockTableRecord
  2
グループ
340
0
102
{BLKREFS
331
64
102
}
  0
BLOCK_RECORD
  5
25
100
AcDbSymbolTableRecord
100
AcDbBlockTableRecord
  2
グループ-1
340
0
102
{BLKREFS
331
61
102
}
  0
BLOCK_RECORD
  5
26
100
AcDbSymbolTableRecord
100
AcDbBlockTableRecord
  2
グループ-2
340
0
102
{BLKREFS
331
65
102
}
  0
BLOCK_RECORD
  5
27
100
AcDbSymbolTableRecord
100
AcDbBlockTableRecord
  2
グループ-3
340
0
102
{BLKREFS
331
3D0
102
}
  0
BLOCK_RECORD
  5
28
100
AcDbSymbolTableRecord
100
AcDbBlockTableRecord
  2
グループ-4
340
0
102
{BLKREFS
331
3D7
102
}
  0
BLOCK_RECORD
  5
29
100
AcDbSymbolTableRecord
100
AcDbBlockTableRecord
  2
グループ-5
340
0
102
{BLKREFS
331
3D8
102
}
  0
BLOCK_RECORD
  5
2A
100
AcDbSymbolTableRecord
100
AcDbBlockTableRecord
  2
グループ-6
340
0
102
{BLKREFS
331
3D9
102
}
  0
BLOCK_RECORD
  5
2B
100
AcDbSymbolTableRecord
100
AcDbBlockTableRecord
  2
グループ-7
340
0
102
{BLKREFS
331
3DA
102
}
  0
BLOCK_RECORD
  5
2C
100
AcDbSymbolTableRecord
100
AcDbBlockTableRecord
  2
*D9
340
0
  0
BLOCK_RECORD
  5
2D
100
AcDbSymbolTableRecord
100
AcDbBlockTableRecord
  2
*D10
340
0
  0
BLOCK_RECORD
  5
2E
100
AcDbSymbolTableRecord
100
AcDbBlockTableRecord
  2
*D11
340
0
  0
BLOCK_RECORD
  5
2F
100
AcDbSymbolTableRecord
100
AcDbBlockTableRecord
  2
グループ-8
340
0
102
{BLKREFS
331
3DE
102
}
  0
BLOCK_RECORD
  5
30
100
AcDbSymbolTableRecord
100
AcDbBlockTableRecord
  2
Callout
340
0
102
{BLKREFS
331
3DF
102
}
  0
BLOCK_RECORD
  5
31
100
AcDbSymbolTableRecord
100
AcDbBlockTableRecord
  2
Callout-1
340
0
102
{BLKREFS
331
3E0
102
}
  0
ENDTAB
  0
ENDSEC
  0
SECTION
  2
BLOCKS
  0
BLOCK
  5
D
100
AcDbEntity
  8
0
390
0
100
AcDbBlockBegin
  2
*MODEL_SPACE
 70
               0
 10
0.0
 20
0.0
 30
0.0
  3
*MODEL_SPACE
  1

  0
ENDBLK
  5
E
100
AcDbEntity
  8
0
390
0
100
AcDbBlockEnd
  0
BLOCK
  5
F
100
AcDbEntity
 67
               1
  8
0
390
0
100
AcDbBlockBegin
  2
*PAPER_SPACE
 70
               0
 10
0.0
 20
0.0
 30
0.0
  3
*PAPER_SPACE
  1

  0
ENDBLK
  5
10
100
AcDbEntity
 67
               1
  8
0
390
0
100
AcDbBlockEnd
  0
BLOCK
  5
4B
100
AcDbEntity
  8
0
370
              -2
390
0
  6
ByBlock
 62
               0
100
AcDbBlockBegin
  2
VW_EMPTYARROW
 70
               0
 10
0.0
 20
0.0
 30
0.0
  3
VW_EMPTYARROW
  1

  0
LINE
  5
4C
100
AcDbEntity
  8
0
370
              -2
390
0
  6
ByBlock
 62
               0
100
AcDbLine
 10
0.0
 20
0.0
 30
0.0
 11
-1.0
 21
0.0
 31
0.0
  0
POLYLINE
  5
4D
100
AcDbEntity
  8
0
370
              -2
390
0
  6
Continuous
 62
               0
100
AcDb2dPolyline
 66
               1
 10
0.0
 20
0.0
 30
0.0
 75
               5
  0
VERTEX
  5
4E
100
AcDbEntity
  8
0
370
              -2
390
0
  6
Continuous
 62
               0
100
AcDbVertex
100
AcDb2dVertex
 10
-0.9921875
 20
0.2658558393652546
 30
0.0
  0
VERTEX
  5
4F
100
AcDbEntity
  8
0
370
              -2
390
0
  6
Continuous
 62
               0
100
AcDbVertex
100
AcDb2dVertex
 10
0.0
 20
0.0
 30
0.0
  0
VERTEX
  5
50
100
AcDbEntity
  8
0
370
              -2
390
0
  6
Continuous
 62
               0
100
AcDbVertex
100
AcDb2dVertex
 10
-0.9921874999999999
 20
-0.2658558393652548
 30
0.0
  0
SEQEND
  5
51
100
AcDbEntity
  8
0
370
              -2
390
0
  6
Continuous
 62
               0
  0
ENDBLK
  5
52
100
AcDbEntity
  8
0
390
0
100
AcDbBlockEnd
  0
BLOCK
  5
54
100
AcDbEntity
  8
0
390
0
100
AcDbBlockBegin
  2
グループ
 70
               0
 10
0.0
 20
0.0
 30
0.0
  3
グループ
  1

  0
LINE
  5
55
100
AcDbEntity
  8
0
370
               0
390
0
  6
Continuous
 62
               1
100
AcDbLine
 10
355.28730459417579
 20
-2132.4782210284193
 30
0.0
 11
355.28730459417579
 21
-2172.4782210284193
 31
0.0
  0
LINE
  5
56
100
AcDbEntity
  8
0
370
               0
390
0
  6
Continuous
 62
               1
100
AcDbLine
 10
295.91230459417579
 20
-2142.4782210284193
 30
0.0
 11
295.91230459417579
 21
-2162.4782210284193
 31
0.0
  0
LINE
  5
57
100
AcDbEntity
  8
0
370
               0
390
0
  6
Continuous
 62
               1
100
AcDbLine
 10
295.91230459417579
 20
-2142.4782210284193
 30
0.0
 11
355.28730459417579
 21
-2132.4782210284193
 31
0.0
  0
LINE
  5
58
100
AcDbEntity
  8
0
370
               0
390
0
  6
Continuous
 62
               1
100
AcDbLine
 10
295.91230459417579
 20
-2162.4782210284193
 30
0.0
 11
355.28730459417579
 21
-2172.4782210284193
 31
0.0
  0
ENDBLK
  5
59
100
AcDbEntity
  8
0
390
0
100
AcDbBlockEnd
  0
BLOCK
  5
5A
100
AcDbEntity
  8
寸法
390
0
100
AcDbBlockBegin
  2
グループ-1
 70
               0
 10
0.0
 20
0.0
 30
0.0
  3
グループ-1
  1

  0
LINE
  5
5B
100
AcDbEntity
  8
0
370
               0
390
0
  6
STYLE_06
 62
               1
100
AcDbLine
 10
236.53730459417577
 20
-2152.4782210284193
 30
0.0
 11
286.53730459417579
 21
-2152.4782210284193
 31
0.0
  0
LINE
  5
5C
100
AcDbEntity
  8
0
370
               0
390
0
  6
STYLE_06
 62
               1
100
AcDbLine
 10
261.53730459417579
 20
-2177.4782210284193
 30
0.0
 11
261.53730459417579
 21
-2127.4782210284193
 31
0.0
  0
ENDBLK
  5
5D
100
AcDbEntity
  8
寸法
390
0
100
AcDbBlockEnd
  0
BLOCK
  5
5E
100
AcDbEntity
  8
0
390
0
100
AcDbBlockBegin
  2
グループ-2
 70
               0
 10
0.0
 20
0.0
 30
0.0
  3
グループ-2
  1

  0
CIRCLE
  5
5F
100
AcDbEntity
  8
0
370
               0
390
0
  6
Continuous
 62
               1
100
AcDbCircle
 10
261.53730459417579
 20
-2152.4782210284193
 30
0.0
 40
20.000000000000057
  0
CIRCLE
  5
60
100
AcDbEntity
  8
0
370
               0
390
0
  6
Continuous
 62
               1
100
AcDbCircle
 10
261.53730459417579
 20
-2152.4782210284193
 30
0.0
 40
9.9999999999998401
  0
INSERT
  5
61
100
AcDbEntity
  8
寸法
390
0
 62
               1
100
AcDbBlockReference
  2
グループ-1
 10
0.0
 20
0.0
 30
0.0
  0
ENDBLK
  5
62
100
AcDbEntity
  8
0
390
0
100
AcDbBlockEnd
  0
BLOCK
  5
63
100
AcDbEntity
  8
0
390
0
100
AcDbBlockBegin
  2
グループ-3
 70
               0
 10
0.0
 20
0.0
 30
0.0
  3
グループ-3
  1

  0
INSERT
  5
64
100
AcDbEntity
  8
0
390
0
 62
               1
100
AcDbBlockReference
  2
グループ
 10
0.0
 20
0.0
 30
0.0
  0
INSERT
  5
65
100
AcDbEntity
  8
0
390
0
 62
               1
100
AcDbBlockReference
  2
グループ-2
 10
0.0
 20
0.0
 30
0.0
  0
LINE
  5
66
100
AcDbEntity
  8
0
370
               0
390
0
  6
STYLE_06
 62
               1
100
AcDbLine
 10
261.53730459417579
 20
-2152.4782210284193
 30
0.0
 11
367.78730459417579
 21
-2152.4782210284193
 31
0.0
  0
LINE
  5
67
100
AcDbEntity
  8
0
370
               0
390
0
  6
Continuous
 62
               1
100
AcDbLine
 10
261.53730459417579
 20
-2172.4782210284193
 30
0.0
 11
261.53730459417579
 21
-2142.4782210284193
 31
0.0
  0
ENDBLK
  5
68
100
AcDbEntity
  8
0
390
0
100
AcDbBlockEnd
  0
BLOCK
  5
69
100
AcDbEntity
  8
0
390
0
100
AcDbBlockBegin
  2
グループ-4
 70
               0
 10
0.0
 20
0.0
 30
0.0
  3
グループ-4
  1

  0
POLYLINE
  5
6A
100
AcDbEntity
  8
0
370
               0
390
0
 62
               1
100
AcDb3dPolyline
 66
               1
 10
0.0
 20
0.0
 30
0.0
 70
               8
  0
VERTEX
  5
6B
100
AcDbEntity
  8
0
370
               0
390
0
 62
               1
100
AcDbVertex
100
AcDb3dPolylineVertex
 10
922.68242525496009
 20
-1433.1461562650393
 30
-0.000000000003638
 70
              32
  0
VERTEX
  5
6C
100
AcDbEntity
  8
0
370
               0
390
0
 62
               1
100
AcDbVertex
100
AcDb3dPolylineVertex
 10
893.72392696725967
 20
-1449.8222463469783
 30
-0.000000000003638
 70
              32
  0
SEQEND
  5
6D
100
AcDbEntity
  8
0
370
               0
390
0
 62
               1
  0
POLYLINE
  5
6E
100
AcDbEntity
  8
0
370
               0
390
0
 62
               1
100
AcDb3dPolyline
 66
               1
 10
0.0
 20
0.0
 30
0.0
 70
               8
  0
VERTEX
  5
6F
100
AcDbEntity
  8
0
370
               0
390
0
 62
               1
100
AcDbVertex
100
AcDb3dPolylineVertex
 10
922.68242525496009
 20
-1433.1461562650393
 30
-0.000000000003638
 70
              32
  0
VERTEX
  5
70
100
AcDbEntity
  8
0
370
               0
390
0
 62
               1
100
AcDbVertex
100
AcDb3dPolylineVertex
 10
1146.1281681099531
 20
-1561.8200018234047
 30
-0.000000000003638
 70
              32
  0
SEQEND
  5
71
100
AcDbEntity
  8
0
370
               0
390
0
 62
               1
  0
POLYLINE
  5
72
100
AcDbEntity
  8
0
370
               0
390
0
 62
               1
100
AcDb3dPolyline
 66
               1
 10
0.0
 20
0.0
 30
0.0
 70
               8
  0
VERTEX
  5
73
100
AcDbEntity
  8
0
370
               0
390
0
 62
               1
100
AcDbVertex
100
AcDb3dPolylineVertex
 10
1172.2204083357324
 20
-1185.6628160768914
 30
-0.000000000003638
 70
              32
  0
VERTEX
  5
74
100
AcDbEntity
  8
0
370
               0
390
0
 62
               1
100
AcDbVertex
100
AcDb3dPolylineVertex
 10
1172.9275151169199
 20
-1185.6628160768933
 30
-0.000000000003638
 70
              32
  0
SEQEND
  5
75
100
AcDbEntity
  8
0
370
               0
390
0
 62
               1
  0
POLYLINE
  5
76
100
AcDbEntity
  8
0
370
               0
390
0
 62
               1
100
AcDb3dPolyline
 66
               1
 10
0.0
 20
0.0
 30
0.0
 70
               8
  0
VERTEX
  5
77
100
AcDbEntity
  8
0
370
               0
390
0
 62
               1
100
AcDbVertex
100
AcDb3dPolylineVertex
 10
1172.2204083357333
 20
-1242.8911148158686
 30
-0.000000000003638
 70
              32
  0
VERTEX
  5
78
100
AcDbEntity
  8
0
370
               0
390
0
 62
               1
100
AcDbVertex
100
AcDb3dPolylineVertex
 10
1172.9275151169199
 20
-1242.8911148158686
 30
-0.000000000003638
 70
              32
  0
SEQEND
  5
79
100
AcDbEntity
  8
0
370
               0
390
0
 62
               1
  0
POLYLINE
  5
7A
100
AcDbEntity
  8
0
370
               0
390
0
 62
               1
100
AcDb3dPolyline
 66
               1
 10
0.0
 20
0.0
 30
0.0
 70
               8
  0
VERTEX
  5
7B
100
AcDbEntity
  8
0
370
               0
390
0
 62
               1
100
AcDbVertex
100
AcDb3dPolylineVertex
 10
906.348258609553
 20
-1032.5572276909961
 30
-0.000000000005457
 70
              32
  0
VERTEX
  5
7C
100
AcDbEntity
  8
0
370
               0
390
0
 62
               1
100
AcDbVertex
100
AcDb3dPolylineVertex
 10
907.05536539073967
 20
-1032.5572276909961
 30
-0.000000000005457
 70
              32
  0
SEQEND
  5
7D
100
AcDbEntity
  8
0
370
               0
390
0
 62
               1
  0
POLYLINE
  5
7E
100
AcDbEntity
  8
0
370
               0
390
0
 62
               1
100
AcDb3dPolyline
 66
               1
 10
0.0
 20
0.0
 30
0.0
 70
               8
  0
VERTEX
  5
7F
100
AcDbEntity
  8
0
370
               0
390
0
 62
               1
100
AcDbVertex
100
AcDb3dPolylineVertex
 10
906.348258609553
 20
-1089.7855264299751
 30
-0.000000000005457
 70
              32
  0
VERTEX
  5
80
100
AcDbEntity
  8
0
370
               0
390
0
 62
               1
100
AcDbVertex
100
AcDb3dPolylineVertex
 10
907.05536539073967
 20
-1089.7855264299751
 30
-0.000000000005457
 70
              32
  0
SEQEND
  5
81
100
AcDbEntity
  8
0
370
               0
390
0
 62
               1
  0
POLYLINE
  5
82
100
AcDbEntity
  8
0
370
               0
390
0
 62
               1
100
AcDb3dPolyline
 66
               1
 10
0.0
 20
0.0
 30
0.0
 70
               8
  0
VERTEX
  5
83
100
AcDbEntity
  8
0
370
               0
390
0
 62
               1
100
AcDbVertex
100
AcDb3dPolylineVertex
 10
904.93404504717876
 20
-1031.7428362634118
 30
-0.000000000003638
 70
              32
  0
VERTEX
  5
84
100
AcDbEntity
  8
0
370
               0
390
0
 62
               1
100
AcDbVertex
100
AcDb3dPolylineVertex
 10
906.348258609553
 20
-1032.5572276909961
 30
-0.000000000005457
 70
              32
  0
SEQEND
  5
85
100
AcDbEntity
  8
0
370
               0
390
0
 62
               1
  0
POLYLINE
  5
86
100
AcDbEntity
  8
0
370
               0
390
0
 62
               1
100
AcDb3dPolyline
 66
               1
 10
0.0
 20
0.0
 30
0.0
 70
               8
  0
VERTEX
  5
87
100
AcDbEntity
  8
0
370
               0
390
0
 62
               1
100
AcDbVertex
100
AcDb3dPolylineVertex
 10
1170.8061947733609
 20
-1184.8484246493053
 30
-0.000000000003638
 70
              32
  0
VERTEX
  5
88
100
AcDbEntity
  8
0
370
               0
390
0
 62
               1
100
AcDbVertex
100
AcDb3dPolylineVertex
 10
1172.2204083357324
 20
-1185.6628160768914
 30
-0.000000000003638
 70
              32
  0
SEQEND
  5
89
100
AcDbEntity
  8
0
370
               0
390
0
 62
               1
  0
POLYLINE
  5
8A
100
AcDbEntity
  8
0
370
               0
390
0
 62
               1
100
AcDb3dPolyline
 66
               1
 10
0.0
 20
0.0
 30
0.0
 70
               8
  0
VERTEX
  5
8B
100
AcDbEntity
  8
0
370
               0
390
0
 62
               1
100
AcDbVertex
100
AcDb3dPolylineVertex
 10
904.93404504717967
 20
-1088.971135002389
 30
-0.000000000005457
 70
              32
  0
VERTEX
  5
8C
100
AcDbEntity
  8
0
370
               0
390
0
 62
               1
100
AcDbVertex
100
AcDb3dPolylineVertex
 10
906.348258609553
 20
-1089.7855264299751
 30
-0.000000000005457
 70
              32
  0
SEQEND
  5
8D
100
AcDbEntity
  8
0
370
               0
390
0
 62
               1
  0
POLYLINE
  5
8E
100
AcDbEntity
  8
0
370
               0
390
0
 62
               1
100
AcDb3dPolyline
 66
               1
 10
0.0
 20
0.0
 30
0.0
 70
               8
  0
VERTEX
  5
8F
100
AcDbEntity
  8
0
370
               0
390
0
 62
               1
100
AcDbVertex
100
AcDb3dPolylineVertex
 10
1170.8061947733609
 20
-1242.0767233882862
 30
-0.000000000003638
 70
              32
  0
VERTEX
  5
90
100
AcDbEntity
  8
0
370
               0
390
0
 62
               1
100
AcDbVertex
100
AcDb3dPolylineVertex
 10
1172.2204083357333
 20
-1242.8911148158686
 30
-0.000000000003638
 70
              32
  0
SEQEND
  5
91
100
AcDbEntity
  8
0
370
               0
390
0
 62
               1
  0
POLYLINE
  5
92
100
AcDbEntity
  8
0
370
               0
390
0
 62
               1
100
AcDb3dPolyline
 66
               1
 10
0.0
 20
0.0
 30
0.0
 70
               8
  0
VERTEX
  5
93
100
AcDbEntity
  8
0
370
               0
390
0
 62
               1
100
AcDbVertex
100
AcDb3dPolylineVertex
 10
941.06720156581434
 20
-1459.6138776615398
 30
-0.000000000003638
 70
              32
  0
VERTEX
  5
94
100
AcDbEntity
  8
0
370
               0
390
0
 62
               1
100
AcDbVertex
100
AcDb3dPolylineVertex
 10
941.06720156581525
 20
-1462.0665190360678
 30
-0.000000000005457
 70
              32
  0
SEQEND
  5
95
100
AcDbEntity
  8
0
370
               0
390
0
 62
               1
  0
POLYLINE
  5
96
100
AcDbEntity
  8
0
370
               0
390
0
 62
               1
100
AcDb3dPolyline
 66
               1
 10
0.0
 20
0.0
 30
0.0
 70
               8
  0
VERTEX
  5
97
100
AcDbEntity
  8
0
370
               0
390
0
 62
               1
100
AcDbVertex
100
AcDb3dPolylineVertex
 10
1139.0571002980782
 20
-1573.6286775233775
 30
-0.000000000003638
 70
              32
  0
VERTEX
  5
98
100
AcDbEntity
  8
0
370
               0
390
0
 62
               1
100
AcDbVertex
100
AcDb3dPolylineVertex
 10
1139.0571002980782
 20
-1576.0813188979055
 30
-0.000000000005457
 70
              32
  0
SEQEND
  5
99
100
AcDbEntity
  8
0
370
               0
390
0
 62
               1
  0
POLYLINE
  5
9A
100
AcDbEntity
  8
0
370
               0
390
0
 62
               1
100
AcDb3dPolyline
 66
               1
 10
0.0
 20
0.0
 30
0.0
 70
               8
  0
VERTEX
  5
9B
100
AcDbEntity
  8
0
370
               0
390
0
 62
               1
100
AcDbVertex
100
AcDb3dPolylineVertex
 10
1151.0779155782579
 20
-1606.2011789295038
 30
-0.000000000003638
 70
              32
  0
VERTEX
  5
9C
100
AcDbEntity
  8
0
370
               0
390
0
 62
               1
100
AcDbVertex
100
AcDb3dPolylineVertex
 10
1148.2494884535113
 20
-1607.8299617846742
 30
-0.000000000003638
 70
              32
  0
SEQEND
  5
9D
100
AcDbEntity
  8
0
370
               0
390
0
 62
               1
  0
POLYLINE
  5
9E
100
AcDbEntity
  8
0
370
               0
390
0
 62
               1
100
AcDb3dPolyline
 66
               1
 10
0.0
 20
0.0
 30
0.0
 70
               8
  0
VERTEX
  5
9F
100
AcDbEntity
  8
0
370
               0
390
0
 62
               1
100
AcDbVertex
100
AcDb3dPolylineVertex
 10
1146.1281681099531
 20
-1606.6083746432969
 30
-0.000000000005457
 70
              32
  0
VERTEX
  5
A0
100
AcDbEntity
  8
0
370
               0
390
0
 62
               1
100
AcDbVertex
100
AcDb3dPolylineVertex
 10
1148.2494884535113
 20
-1607.8299617846742
 30
-0.000000000003638
 70
              32
  0
SEQEND
  5
A1
100
AcDbEntity
  8
0
370
               0
390
0
 62
               1
  0
POLYLINE
  5
A2
100
AcDbEntity
  8
0
370
               0
390
0
 62
               1
100
AcDb3dPolyline
 66
               1
 10
0.0
 20
0.0
 30
0.0
 70
               8
  0
VERTEX
  5
A3
100
AcDbEntity
  8
0
370
               0
390
0
 62
               1
100
AcDbVertex
100
AcDb3dPolylineVertex
 10
1148.2494884535113
 20
-1607.8299617846742
 30
-0.000000000003638
 70
              32
  0
VERTEX
  5
A4
100
AcDbEntity
  8
0
370
               0
390
0
 62
               1
100
AcDbVertex
100
AcDb3dPolylineVertex
 10
1148.2494884535113
 20
-1607.8425845737047
 30
-0.000000000005457
 70
              32
  0
SEQEND
  5
A5
100
AcDbEntity
  8
0
370
               0
390
0
 62
               1
  0
POLYLINE
  5
A6
100
AcDbEntity
  8
0
370
               0
390
0
 62
               1
100
AcDb3dPolyline
 66
               1
 10
0.0
 20
0.0
 30
0.0
 70
               8
  0
VERTEX
  5
A7
100
AcDbEntity
  8
0
370
               0
390
0
 62
               1
100
AcDbVertex
100
AcDb3dPolylineVertex
 10
883.08444550851857
 20
-1454.3171776849858
 30
-0.000000000005457
 70
              32
  0
VERTEX
  5
A8
100
AcDbEntity
  8
0
370
               0
390
0
 62
               1
100
AcDbVertex
100
AcDb3dPolylineVertex
 10
882.37733872733281
 20
-1454.7243733987807
 30
-0.000000000005457
 70
              32
  0
SEQEND
  5
A9
100
AcDbEntity
  8
0
370
               0
390
0
 62
               1
  0
POLYLINE
  5
AA
100
AcDbEntity
  8
0
370
               0
390
0
 62
               1
100
AcDb3dPolyline
 66
               1
 10
0.0
 20
0.0
 30
0.0
 70
               8
  0
VERTEX
  5
AB
100
AcDbEntity
  8
0
370
               0
390
0
 62
               1
100
AcDbVertex
100
AcDb3dPolylineVertex
 10
880.2560183837719
 20
-1453.5027862574034
 30
-0.000000000003638
 70
              32
  0
VERTEX
  5
AC
100
AcDbEntity
  8
0
370
               0
390
0
 62
               1
100
AcDbVertex
100
AcDb3dPolylineVertex
 10
882.37733872733281
 20
-1454.7243733987807
 30
-0.000000000005457
 70
              32
  0
SEQEND
  5
AD
100
AcDbEntity
  8
0
370
               0
390
0
 62
               1
  0
POLYLINE
  5
AE
100
AcDbEntity
  8
0
370
               0
390
0
 62
               1
100
AcDb3dPolyline
 66
               1
 10
0.0
 20
0.0
 30
0.0
 70
               8
  0
VERTEX
  5
AF
100
AcDbEntity
  8
0
370
               0
390
0
 62
               1
100
AcDbVertex
100
AcDb3dPolylineVertex
 10
921.97531847377161
 20
-1431.921413426403
 30
-0.000000000005457
 70
              32
  0
VERTEX
  5
B0
100
AcDbEntity
  8
0
370
               0
390
0
 62
               1
100
AcDbVertex
100
AcDb3dPolylineVertex
 10
892.30697342647329
 20
-1449.0062770707655
 30
-0.000000000005457
 70
              32
  0
SEQEND
  5
B1
100
AcDbEntity
  8
0
370
               0
390
0
 62
               1
  0
POLYLINE
  5
B2
100
AcDbEntity
  8
0
370
               0
390
0
 62
               1
100
AcDb3dPolyline
 66
               1
 10
0.0
 20
0.0
 30
0.0
 70
               8
  0
VERTEX
  5
B3
100
AcDbEntity
  8
0
370
               0
390
0
 62
               1
100
AcDbVertex
100
AcDb3dPolylineVertex
 10
1190.6758953246995
 20
-1583.3982189571316
 30
-0.000000000003638
 70
              32
  0
VERTEX
  5
B4
100
AcDbEntity
  8
0
370
               0
390
0
 62
               1
100
AcDbVertex
100
AcDb3dPolylineVertex
 10
1187.8474681999528
 20
-1585.0270018122983
 30
-0.000000000005457
 70
              32
  0
SEQEND
  5
B5
100
AcDbEntity
  8
0
370
               0
390
0
 62
               1
  0
POLYLINE
  5
B6
100
AcDbEntity
  8
0
370
               0
390
0
 62
               1
100
AcDb3dPolyline
 66
               1
 10
0.0
 20
0.0
 30
0.0
 70
               8
  0
VERTEX
  5
B7
100
AcDbEntity
  8
0
370
               0
390
0
 62
               1
100
AcDbVertex
100
AcDb3dPolylineVertex
 10
923.38953203614585
 20
-1431.1070219988187
 30
-0.000000000003638
 70
              32
  0
VERTEX
  5
B8
100
AcDbEntity
  8
0
370
               0
390
0
 62
               1
100
AcDbVertex
100
AcDb3dPolylineVertex
 10
921.97531847377161
 20
-1431.921413426403
 30
-0.000000000005457
 70
              32
  0
SEQEND
  5
B9
100
AcDbEntity
  8
0
370
               0
390
0
 62
               1
  0
POLYLINE
  5
BA
100
AcDbEntity
  8
0
370
               0
390
0
 62
               1
100
AcDb3dPolyline
 66
               1
 10
0.0
 20
0.0
 30
0.0
 70
               8
  0
VERTEX
  5
BB
100
AcDbEntity
  8
0
370
               0
390
0
 62
               1
100
AcDbVertex
100
AcDb3dPolylineVertex
 10
1148.2494884535122
 20
-1199.8739464882447
 30
-0.000000000005457
 70
              32
  0
VERTEX
  5
BC
100
AcDbEntity
  8
0
370
               0
390
0
 62
               1
100
AcDbVertex
100
AcDb3dPolylineVertex
 10
1148.2494884535113
 20
-1607.8299617846742
 30
-0.000000000003638
 70
              32
  0
SEQEND
  5
BD
100
AcDbEntity
  8
0
370
               0
390
0
 62
               1
  0
POLYLINE
  5
BE
100
AcDbEntity
  8
0
370
               0
390
0
 62
               1
100
AcDb3dPolyline
 66
               1
 10
0.0
 20
0.0
 30
0.0
 70
               8
  0
VERTEX
  5
BF
100
AcDbEntity
  8
0
370
               0
390
0
 62
               1
100
AcDbVertex
100
AcDb3dPolylineVertex
 10
1148.2494884535122
 20
-1199.8739464882447
 30
-0.000000000005457
 70
              32
  0
VERTEX
  5
C0
100
AcDbEntity
  8
0
370
               0
390
0
 62
               1
100
AcDbVertex
100
AcDb3dPolylineVertex
 10
1146.1281681099531
 20
-1198.6523593468692
 30
-0.000000000005457
 70
              32
  0
SEQEND
  5
C1
100
AcDbEntity
  8
0
370
               0
390
0
 62
               1
  0
POLYLINE
  5
C2
100
AcDbEntity
  8
0
370
               0
390
0
 62
               1
100
AcDb3dPolyline
 66
               1
 10
0.0
 20
0.0
 30
0.0
 70
               8
  0
VERTEX
  5
C3
100
AcDbEntity
  8
0
370
               0
390
0
 62
               1
100
AcDbVertex
100
AcDb3dPolylineVertex
 10
1146.1281681099531
 20
-1198.6523593468692
 30
-0.000000000005457
 70
              32
  0
VERTEX
  5
C4
100
AcDbEntity
  8
0
370
               0
390
0
 62
               1
100
AcDbVertex
100
AcDb3dPolylineVertex
 10
1146.1281681099531
 20
-1606.6083746432969
 30
-0.000000000005457
 70
              32
  0
SEQEND
  5
C5
100
AcDbEntity
  8
0
370
               0
390
0
 62
               1
  0
POLYLINE
  5
C6
100
AcDbEntity
  8
0
370
               0
390
0
 62
               1
100
AcDb3dPolyline
 66
               1
 10
0.0
 20
0.0
 30
0.0
 70
               8
  0
VERTEX
  5
C7
100
AcDbEntity
  8
0
370
               0
390
0
 62
               1
100
AcDbVertex
100
AcDb3dPolylineVertex
 10
924.80374559851737
 20
-1422.1140036255538
 30
-0.000000000003638
 70
              32
  0
VERTEX
  5
C8
100
AcDbEntity
  8
0
370
               0
390
0
 62
               1
100
AcDbVertex
100
AcDb3dPolylineVertex
 10
924.80374559851737
 20
-1022.3366152748085
 30
-0.000000000005457
 70
              32
  0
SEQEND
  5
C9
100
AcDbEntity
  8
0
370
               0
390
0
 62
               1
  0
POLYLINE
  5
CA
100
AcDbEntity
  8
0
370
               0
390
0
 62
               1
100
AcDb3dPolyline
 66
               1
 10
0.0
 20
0.0
 30
0.0
 70
               8
  0
VERTEX
  5
CB
100
AcDbEntity
  8
0
370
               0
390
0
 62
               1
100
AcDbVertex
100
AcDb3dPolylineVertex
 10
880.2560183837719
 20
-1453.5027862574034
 30
-0.000000000003638
 70
              32
  0
VERTEX
  5
CC
100
AcDbEntity
  8
0
370
               0
390
0
 62
               1
100
AcDbVertex
100
AcDb3dPolylineVertex
 10
880.25601838377099
 20
-1045.5467709609738
 30
-0.000000000003638
 70
              32
  0
SEQEND
  5
CD
100
AcDbEntity
  8
0
370
               0
390
0
 62
               1
  0
POLYLINE
  5
CE
100
AcDbEntity
  8
0
370
               0
390
0
 62
               1
100
AcDb3dPolyline
 66
               1
 10
0.0
 20
0.0
 30
0.0
 70
               8
  0
VERTEX
  5
CF
100
AcDbEntity
  8
0
370
               0
390
0
 62
               1
100
AcDbVertex
100
AcDb3dPolylineVertex
 10
882.37733872733281
 20
-1454.7243733987807
 30
-0.000000000005457
 70
              32
  0
VERTEX
  5
D0
100
AcDbEntity
  8
0
370
               0
390
0
 62
               1
100
AcDbVertex
100
AcDb3dPolylineVertex
 10
882.3773387273319
 20
-1046.7683581023512
 30
-0.000000000005457
 70
              32
  0
SEQEND
  5
D1
100
AcDbEntity
  8
0
370
               0
390
0
 62
               1
  0
POLYLINE
  5
D2
100
AcDbEntity
  8
0
370
               0
390
0
 62
               1
100
AcDb3dPolyline
 66
               1
 10
0.0
 20
0.0
 30
0.0
 70
               8
  0
VERTEX
  5
D3
100
AcDbEntity
  8
0
370
               0
390
0
 62
               1
100
AcDbVertex
100
AcDb3dPolylineVertex
 10
1190.6758953246995
 20
-1175.442203660702
 30
-0.000000000005457
 70
              32
  0
VERTEX
  5
D4
100
AcDbEntity
  8
0
370
               0
390
0
 62
               1
100
AcDbVertex
100
AcDb3dPolylineVertex
 10
1190.6758953246995
 20
-1583.3982189571316
 30
-0.000000000003638
 70
              32
  0
SEQEND
  5
D5
100
AcDbEntity
  8
0
370
               0
390
0
 62
               1
  0
POLYLINE
  5
D6
100
AcDbEntity
  8
0
370
               0
390
0
 62
               1
100
AcDb3dPolyline
 66
               1
 10
0.0
 20
0.0
 30
0.0
 70
               8
  0
VERTEX
  5
D7
100
AcDbEntity
  8
0
370
               0
390
0
 62
               1
100
AcDbVertex
100
AcDb3dPolylineVertex
 10
1187.8474681999528
 20
-1585.0270018122983
 30
-0.000000000005457
 70
              32
  0
VERTEX
  5
D8
100
AcDbEntity
  8
0
370
               0
390
0
 62
               1
100
AcDbVertex
100
AcDb3dPolylineVertex
 10
1151.0779155782579
 20
-1606.2011789295038
 30
-0.000000000003638
 70
              32
  0
SEQEND
  5
D9
100
AcDbEntity
  8
0
370
               0
390
0
 62
               1
  0
POLYLINE
  5
DA
100
AcDbEntity
  8
0
370
               0
390
0
 62
               1
100
AcDb3dPolyline
 66
               1
 10
0.0
 20
0.0
 30
0.0
 70
               8
  0
VERTEX
  5
DB
100
AcDbEntity
  8
0
370
               0
390
0
 62
               1
100
AcDbVertex
100
AcDb3dPolylineVertex
 10
882.3773387273319
 20
-1046.7683581023512
 30
-0.000000000005457
 70
              32
  0
VERTEX
  5
DC
100
AcDbEntity
  8
0
370
               0
390
0
 62
               1
100
AcDbVertex
100
AcDb3dPolylineVertex
 10
880.25601838377099
 20
-1045.5467709609738
 30
-0.000000000003638
 70
              32
  0
SEQEND
  5
DD
100
AcDbEntity
  8
0
370
               0
390
0
 62
               1
  0
POLYLINE
  5
DE
100
AcDbEntity
  8
0
370
               0
390
0
 62
               1
100
AcDb3dPolyline
 66
               1
 10
0.0
 20
0.0
 30
0.0
 70
               8
  0
VERTEX
  5
DF
100
AcDbEntity
  8
0
370
               0
390
0
 62
               1
100
AcDbVertex
100
AcDb3dPolylineVertex
 10
1146.1281681099531
 20
-1560.1880632709772
 30
-0.000000000003638
 70
              32
  0
VERTEX
  5
E0
100
AcDbEntity
  8
0
370
               0
390
0
 62
               1
100
AcDbVertex
100
AcDb3dPolylineVertex
 10
923.38953203614494
 20
-1431.921413426403
 30
-0.000000000005457
 70
              32
  0
SEQEND
  5
E1
100
AcDbEntity
  8
0
370
               0
390
0
 62
               1
  0
POLYLINE
  5
E2
100
AcDbEntity
  8
0
370
               0
390
0
 62
               1
100
AcDb3dPolyline
 66
               1
 10
0.0
 20
0.0
 30
0.0
 70
               8
  0
VERTEX
  5
E3
100
AcDbEntity
  8
0
370
               0
390
0
 62
               1
100
AcDbVertex
100
AcDb3dPolylineVertex
 10
923.38953203614494
 20
-1431.921413426403
 30
-0.000000000005457
 70
              32
  0
VERTEX
  5
E4
100
AcDbEntity
  8
0
370
               0
390
0
 62
               1
100
AcDbVertex
100
AcDb3dPolylineVertex
 10
923.38953203614494
 20
-1422.928395053138
 30
-0.000000000003638
 70
              32
  0
SEQEND
  5
E5
100
AcDbEntity
  8
0
370
               0
390
0
 62
               1
  0
POLYLINE
  5
E6
100
AcDbEntity
  8
0
370
               0
390
0
 62
               1
100
AcDb3dPolyline
 66
               1
 10
0.0
 20
0.0
 30
0.0
 70
               8
  0
VERTEX
  5
E7
100
AcDbEntity
  8
0
370
               0
390
0
 62
               1
100
AcDbVertex
100
AcDb3dPolylineVertex
 10
925.51085237970403
 20
-1421.7068079117607
 30
-0.000000000005457
 70
              32
  0
VERTEX
  5
E8
100
AcDbEntity
  8
0
370
               0
390
0
 62
               1
100
AcDbVertex
100
AcDb3dPolylineVertex
 10
923.38953203614494
 20
-1422.928395053138
 30
-0.000000000003638
 70
              32
  0
SEQEND
  5
E9
100
AcDbEntity
  8
0
370
               0
390
0
 62
               1
  0
POLYLINE
  5
EA
100
AcDbEntity
  8
0
370
               0
390
0
 62
               1
100
AcDb3dPolyline
 66
               1
 10
0.0
 20
0.0
 30
0.0
 70
               8
  0
VERTEX
  5
EB
100
AcDbEntity
  8
0
370
               0
390
0
 62
               1
100
AcDbVertex
100
AcDb3dPolylineVertex
 10
925.51085237970403
 20
-1421.7068079117607
 30
-0.000000000005457
 70
              32
  0
VERTEX
  5
EC
100
AcDbEntity
  8
0
370
               0
390
0
 62
               1
100
AcDbVertex
100
AcDb3dPolylineVertex
 10
1146.1281681099522
 20
-1548.751870614954
 30
-0.000000000003638
 70
              32
  0
SEQEND
  5
ED
100
AcDbEntity
  8
0
370
               0
390
0
 62
               1
  0
POLYLINE
  5
EE
100
AcDbEntity
  8
0
370
               0
390
0
 62
               1
100
AcDb3dPolyline
 66
               1
 10
0.0
 20
0.0
 30
0.0
 70
               8
  0
VERTEX
  5
EF
100
AcDbEntity
  8
0
370
               0
390
0
 62
               1
100
AcDbVertex
100
AcDb3dPolylineVertex
 10
923.38953203614494
 20
-1422.928395053138
 30
-0.000000000003638
 70
              32
  0
VERTEX
  5
F0
100
AcDbEntity
  8
0
370
               0
390
0
 62
               1
100
AcDbVertex
100
AcDb3dPolylineVertex
 10
1146.1281681099522
 20
-1551.1950448977086
 30
-0.000000000003638
 70
              32
  0
SEQEND
  5
F1
100
AcDbEntity
  8
0
370
               0
390
0
 62
               1
  0
POLYLINE
  5
F2
100
AcDbEntity
  8
0
370
               0
390
0
 62
               1
100
AcDb3dPolyline
 66
               1
 10
0.0
 20
0.0
 30
0.0
 70
               8
  0
VERTEX
  5
F3
100
AcDbEntity
  8
0
370
               0
390
0
 62
               1
100
AcDbVertex
100
AcDb3dPolylineVertex
 10
1146.1281681099522
 20
-1605.7939832157108
 30
-0.000000000003638
 70
              32
  0
VERTEX
  5
F4
100
AcDbEntity
  8
0
370
               0
390
0
 62
               1
100
AcDbVertex
100
AcDb3dPolylineVertex
 10
1145.4210613287664
 20
-1606.2011789295038
 30
-0.000000000005457
 70
              32
  0
SEQEND
  5
F5
100
AcDbEntity
  8
0
370
               0
390
0
 62
               1
  0
POLYLINE
  5
F6
100
AcDbEntity
  8
0
370
               0
390
0
 62
               1
100
AcDb3dPolyline
 66
               1
 10
0.0
 20
0.0
 30
0.0
 70
               8
  0
VERTEX
  5
F7
100
AcDbEntity
  8
0
370
               0
390
0
 62
               1
100
AcDbVertex
100
AcDb3dPolylineVertex
 10
883.08444550851766
 20
-1455.1315691125701
 30
-0.000000000003638
 70
              32
  0
VERTEX
  5
F8
100
AcDbEntity
  8
0
370
               0
390
0
 62
               1
100
AcDbVertex
100
AcDb3dPolylineVertex
 10
1145.4210613287664
 20
-1606.2011789295038
 30
-0.000000000005457
 70
              32
  0
SEQEND
  5
F9
100
AcDbEntity
  8
0
370
               0
390
0
 62
               1
  0
POLYLINE
  5
FA
100
AcDbEntity
  8
0
370
               0
390
0
 62
               1
100
AcDb3dPolyline
 66
               1
 10
0.0
 20
0.0
 30
0.0
 70
               8
  0
VERTEX
  5
FB
100
AcDbEntity
  8
0
370
               0
390
0
 62
               1
100
AcDbVertex
100
AcDb3dPolylineVertex
 10
1145.4210613287655
 20
-1597.2081605562353
 30
-0.000000000003638
 70
              32
  0
VERTEX
  5
FC
100
AcDbEntity
  8
0
370
               0
390
0
 62
               1
100
AcDbVertex
100
AcDb3dPolylineVertex
 10
1145.4210613287664
 20
-1606.2011789295038
 30
-0.000000000005457
 70
              32
  0
SEQEND
  5
FD
100
AcDbEntity
  8
0
370
               0
390
0
 62
               1
  0
POLYLINE
  5
FE
100
AcDbEntity
  8
0
370
               0
390
0
 62
               1
100
AcDb3dPolyline
 66
               1
 10
0.0
 20
0.0
 30
0.0
 70
               8
  0
VERTEX
  5
FF
100
AcDbEntity
  8
0
370
               0
390
0
 62
               1
100
AcDbVertex
100
AcDb3dPolylineVertex
 10
1145.4210613287655
 20
-1597.2081605562353
 30
-0.000000000003638
 70
              32
  0
VERTEX
  5
100
100
AcDbEntity
  8
0
370
               0
390
0
 62
               1
100
AcDbVertex
100
AcDb3dPolylineVertex
 10
1146.1281681099531
 20
-1596.8009648424422
 30
-0.000000000003638
 70
              32
  0
SEQEND
  5
101
100
AcDbEntity
  8
0
370
               0
390
0
 62
               1
  0
POLYLINE
  5
102
100
AcDbEntity
  8
0
370
               0
390
0
 62
               1
100
AcDb3dPolyline
 66
               1
 10
0.0
 20
0.0
 30
0.0
 70
               8
  0
VERTEX
  5
103
100
AcDbEntity
  8
0
370
               0
390
0
 62
               1
100
AcDbVertex
100
AcDb3dPolylineVertex
 10
883.08444550851766
 20
-1455.1315691125701
 30
-0.000000000003638
 70
              32
  0
VERTEX
  5
104
100
AcDbEntity
  8
0
370
               0
390
0
 62
               1
100
AcDbVertex
100
AcDb3dPolylineVertex
 10
883.08444550851857
 20
-1446.1385507393034
 30
-0.000000000003638
 70
              32
  0
SEQEND
  5
105
100
AcDbEntity
  8
0
370
               0
390
0
 62
               1
  0
POLYLINE
  5
106
100
AcDbEntity
  8
0
370
               0
390
0
 62
               1
100
AcDb3dPolyline
 66
               1
 10
0.0
 20
0.0
 30
0.0
 70
               8
  0
VERTEX
  5
107
100
AcDbEntity
  8
0
370
               0
390
0
 62
               1
100
AcDbVertex
100
AcDb3dPolylineVertex
 10
883.08444550851857
 20
-1446.1385507393034
 30
-0.000000000003638
 70
              32
  0
VERTEX
  5
108
100
AcDbEntity
  8
0
370
               0
390
0
 62
               1
100
AcDbVertex
100
AcDb3dPolylineVertex
 10
885.20576585207675
 20
-1444.916963597926
 30
-0.000000000003638
 70
              32
  0
SEQEND
  5
109
100
AcDbEntity
  8
0
370
               0
390
0
 62
               1
  0
POLYLINE
  5
10A
100
AcDbEntity
  8
0
370
               0
390
0
 62
               1
100
AcDb3dPolyline
 66
               1
 10
0.0
 20
0.0
 30
0.0
 70
               8
  0
VERTEX
  5
10B
100
AcDbEntity
  8
0
370
               0
390
0
 62
               1
100
AcDbVertex
100
AcDb3dPolylineVertex
 10
883.08444550851857
 20
-1446.1385507393034
 30
-0.000000000003638
 70
              32
  0
VERTEX
  5
10C
100
AcDbEntity
  8
0
370
               0
390
0
 62
               1
100
AcDbVertex
100
AcDb3dPolylineVertex
 10
1145.4210613287655
 20
-1597.2081605562353
 30
-0.000000000003638
 70
              32
  0
SEQEND
  5
10D
100
AcDbEntity
  8
0
370
               0
390
0
 62
               1
  0
POLYLINE
  5
10E
100
AcDbEntity
  8
0
370
               0
390
0
 62
               1
100
AcDb3dPolyline
 66
               1
 10
0.0
 20
0.0
 30
0.0
 70
               8
  0
VERTEX
  5
10F
100
AcDbEntity
  8
0
370
               0
390
0
 62
               1
100
AcDbVertex
100
AcDb3dPolylineVertex
 10
885.20576585207675
 20
-1444.916963597926
 30
-0.000000000003638
 70
              32
  0
VERTEX
  5
110
100
AcDbEntity
  8
0
370
               0
390
0
 62
               1
100
AcDbVertex
100
AcDb3dPolylineVertex
 10
1146.1281681099522
 20
-1595.1721819872755
 30
-0.000000000005457
 70
              32
  0
SEQEND
  5
111
100
AcDbEntity
  8
0
370
               0
390
0
 62
               1
  0
POLYLINE
  5
112
100
AcDbEntity
  8
0
370
               0
390
0
 62
               1
100
AcDb3dPolyline
 66
               1
 10
0.0
 20
0.0
 30
0.0
 70
               8
  0
VERTEX
  5
113
100
AcDbEntity
  8
0
370
               0
390
0
 62
               1
100
AcDbVertex
100
AcDb3dPolylineVertex
 10
1167.3413715455449
 20
-1161.9100741878201
 30
-0.000000000003638
 70
              32
  0
VERTEX
  5
114
100
AcDbEntity
  8
0
370
               0
390
0
 62
               1
100
AcDbVertex
100
AcDb3dPolylineVertex
 10
1169.4626918891058
 20
-1163.1316613291974
 30
-0.000000000005457
 70
              32
  0
SEQEND
  5
115
100
AcDbEntity
  8
0
370
               0
390
0
 62
               1
  0
POLYLINE
  5
116
100
AcDbEntity
  8
0
370
               0
390
0
 62
               1
100
AcDb3dPolyline
 66
               1
 10
0.0
 20
0.0
 30
0.0
 70
               8
  0
VERTEX
  5
117
100
AcDbEntity
  8
0
370
               0
390
0
 62
               1
100
AcDbVertex
100
AcDb3dPolylineVertex
 10
903.59054216292373
 20
-1010.026072943304
 30
-0.000000000003638
 70
              32
  0
VERTEX
  5
118
100
AcDbEntity
  8
0
370
               0
390
0
 62
               1
100
AcDbVertex
100
AcDb3dPolylineVertex
 10
901.46922181936554
 20
-1008.8044858019267
 30
-0.000000000005457
 70
              32
  0
SEQEND
  5
119
100
AcDbEntity
  8
0
370
               0
390
0
 62
               1
  0
POLYLINE
  5
11A
100
AcDbEntity
  8
0
370
               0
390
0
 62
               1
100
AcDb3dPolyline
 66
               1
 10
0.0
 20
0.0
 30
0.0
 70
               8
  0
VERTEX
  5
11B
100
AcDbEntity
  8
0
370
               0
390
0
 62
               1
100
AcDbVertex
100
AcDb3dPolylineVertex
 10
1043.9512382284743
 20
-1517.6140212988748
 30
-0.000000000005457
 70
              32
  0
VERTEX
  5
11C
100
AcDbEntity
  8
0
370
               0
390
0
 62
               1
100
AcDbVertex
100
AcDb3dPolylineVertex
 10
1044.3047916190676
 20
-1518.2263927181912
 30
-0.000000000003638
 70
              32
  0
SEQEND
  5
11D
100
AcDbEntity
  8
0
370
               0
390
0
 62
               1
  0
POLYLINE
  5
11E
100
AcDbEntity
  8
0
370
               0
390
0
 62
               1
100
AcDb3dPolyline
 66
               1
 10
0.0
 20
0.0
 30
0.0
 70
               8
  0
VERTEX
  5
11F
100
AcDbEntity
  8
0
370
               0
390
0
 62
               1
100
AcDbVertex
100
AcDb3dPolylineVertex
 10
1030.8697627765218
 20
-1510.4896741561397
 30
-0.000000000005457
 70
              32
  0
VERTEX
  5
120
100
AcDbEntity
  8
0
370
               0
390
0
 62
               1
100
AcDbVertex
100
AcDb3dPolylineVertex
 10
1030.5162093859285
 20
-1509.8773027368215
 30
-0.000000000003638
 70
              32
  0
SEQEND
  5
121
100
AcDbEntity
  8
0
370
               0
390
0
 62
               1
  0
POLYLINE
  5
122
100
AcDbEntity
  8
0
370
               0
390
0
 62
               1
100
AcDb3dPolyline
 66
               1
 10
0.0
 20
0.0
 30
0.0
 70
               8
  0
VERTEX
  5
123
100
AcDbEntity
  8
0
370
               0
390
0
 62
               1
100
AcDbVertex
100
AcDb3dPolylineVertex
 10
1030.8697627765218
 20
-1515.7680370988992
 30
-0.000000000003638
 70
              32
  0
VERTEX
  5
124
100
AcDbEntity
  8
0
370
               0
390
0
 62
               1
100
AcDbVertex
100
AcDb3dPolylineVertex
 10
1030.8697627765218
 20
-1510.4896741561397
 30
-0.000000000005457
 70
              32
  0
SEQEND
  5
125
100
AcDbEntity
  8
0
370
               0
390
0
 62
               1
  0
POLYLINE
  5
126
100
AcDbEntity
  8
0
370
               0
390
0
 62
               1
100
AcDb3dPolyline
 66
               1
 10
0.0
 20
0.0
 30
0.0
 70
               8
  0
VERTEX
  5
127
100
AcDbEntity
  8
0
370
               0
390
0
 62
               1
100
AcDbVertex
100
AcDb3dPolylineVertex
 10
1044.3047916190676
 20
-1524.357996154512
 30
-0.000000000005457
 70
              32
  0
VERTEX
  5
128
100
AcDbEntity
  8
0
370
               0
390
0
 62
               1
100
AcDbVertex
100
AcDb3dPolylineVertex
 10
1044.3047916190676
 20
-1518.2263927181912
 30
-0.000000000003638
 70
              32
  0
SEQEND
  5
129
100
AcDbEntity
  8
0
370
               0
390
0
 62
               1
  0
POLYLINE
  5
12A
100
AcDbEntity
  8
0
370
               0
390
0
 62
               1
100
AcDb3dPolyline
 66
               1
 10
0.0
 20
0.0
 30
0.0
 70
               8
  0
VERTEX
  5
12B
100
AcDbEntity
  8
0
370
               0
390
0
 62
               1
100
AcDbVertex
100
AcDb3dPolylineVertex
 10
1187.0151699215453
 20
-1586.8645527017097
 30
-0.000000000005457
 70
              32
  0
VERTEX
  5
12C
100
AcDbEntity
  8
0
370
               0
390
0
 62
               1
100
AcDbVertex
100
AcDb3dPolylineVertex
 10
1150.2456172998504
 20
-1608.0387298189153
 30
-0.000000000003638
 70
              32
  0
SEQEND
  5
12D
100
AcDbEntity
  8
0
370
               0
390
0
 62
               1
  0
POLYLINE
  5
12E
100
AcDbEntity
  8
0
370
               0
390
0
 62
               1
100
AcDb3dPolyline
 66
               1
 10
0.0
 20
0.0
 30
0.0
 70
               8
  0
VERTEX
  5
12F
100
AcDbEntity
  8
0
370
               0
390
0
 62
               1
100
AcDbVertex
100
AcDb3dPolylineVertex
 10
883.9167437869279
 20
-1456.9691200019815
 30
-0.000000000003638
 70
              32
  0
VERTEX
  5
130
100
AcDbEntity
  8
0
370
               0
390
0
 62
               1
100
AcDbVertex
100
AcDb3dPolylineVertex
 10
1146.2533596071758
 20
-1608.0387298189171
 30
-0.000000000003638
 70
              32
  0
SEQEND
  5
131
100
AcDbEntity
  8
0
370
               0
390
0
 62
               1
  0
POLYLINE
  5
132
100
AcDbEntity
  8
0
370
               0
390
0
 62
               1
100
AcDb3dPolyline
 66
               1
 10
0.0
 20
0.0
 30
0.0
 70
               8
  0
VERTEX
  5
133
100
AcDbEntity
  8
0
370
               0
390
0
 62
               1
100
AcDbVertex
100
AcDb3dPolylineVertex
 10
1182.3123378930727
 20
-1160.4389848487381
 30
-0.000000000003638
 70
              32
  0
VERTEX
  5
134
100
AcDbEntity
  8
0
370
               0
390
0
 62
               1
100
AcDbVertex
100
AcDb3dPolylineVertex
 10
1184.4336582366309
 20
-1161.6605719901154
 30
-0.000000000005457
 70
              32
  0
SEQEND
  5
135
100
AcDbEntity
  8
0
370
               0
390
0
 62
               1
  0
POLYLINE
  5
136
100
AcDbEntity
  8
0
370
               0
390
0
 62
               1
100
AcDb3dPolyline
 66
               1
 10
0.0
 20
0.0
 30
0.0
 70
               8
  0
VERTEX
  5
137
100
AcDbEntity
  8
0
370
               0
390
0
 62
               1
100
AcDbVertex
100
AcDb3dPolylineVertex
 10
918.5615085104497
 20
-1008.5549836042202
 30
-0.000000000003638
 70
              32
  0
VERTEX
  5
138
100
AcDbEntity
  8
0
370
               0
390
0
 62
               1
100
AcDbVertex
100
AcDb3dPolylineVertex
 10
916.44018816689061
 20
-1007.3333964628447
 30
-0.000000000003638
 70
              32
  0
SEQEND
  5
139
100
AcDbEntity
  8
0
370
               0
390
0
 62
               1
  0
POLYLINE
  5
13A
100
AcDbEntity
  8
0
370
               0
390
0
 62
               1
100
AcDb3dPolyline
 66
               1
 10
0.0
 20
0.0
 30
0.0
 70
               8
  0
VERTEX
  5
13B
100
AcDbEntity
  8
0
370
               0
390
0
 62
               1
100
AcDbVertex
100
AcDb3dPolylineVertex
 10
1043.9838651156711
 20
-1507.8601852662605
 30
-0.000000000005457
 70
              32
  0
VERTEX
  5
13C
100
AcDbEntity
  8
0
370
               0
390
0
 62
               1
100
AcDbVertex
100
AcDb3dPolylineVertex
 10
1044.3387779598993
 20
-1508.0661468508852
 30
-0.000000000003638
 70
              32
  0
SEQEND
  5
13D
100
AcDbEntity
  8
0
370
               0
390
0
 62
               1
  0
POLYLINE
  5
13E
100
AcDbEntity
  8
0
370
               0
390
0
 62
               1
100
AcDb3dPolyline
 66
               1
 10
0.0
 20
0.0
 30
0.0
 70
               8
  0
VERTEX
  5
13F
100
AcDbEntity
  8
0
370
               0
390
0
 62
               1
100
AcDbVertex
100
AcDb3dPolylineVertex
 10
1047.9659568542352
 20
-1519.268049732108
 30
-0.000000000005457
 70
              32
  0
VERTEX
  5
140
100
AcDbEntity
  8
0
370
               0
390
0
 62
               1
100
AcDbVertex
100
AcDb3dPolylineVertex
 10
1047.9659568542352
 20
-1513.1364462957908
 30
-0.000000000005457
 70
              32
  0
SEQEND
  5
141
100
AcDbEntity
  8
0
370
               0
390
0
 62
               1
  0
POLYLINE
  5
142
100
AcDbEntity
  8
0
370
               0
390
0
 62
               1
100
AcDb3dPolyline
 66
               1
 10
0.0
 20
0.0
 30
0.0
 70
               8
  0
VERTEX
  5
143
100
AcDbEntity
  8
0
370
               0
390
0
 62
               1
100
AcDbVertex
100
AcDb3dPolylineVertex
 10
1022.9659568542343
 20
-1519.2680497321062
 30
-0.000000000005457
 70
              32
  0
VERTEX
  5
144
100
AcDbEntity
  8
0
370
               0
390
0
 62
               1
100
AcDbVertex
100
AcDb3dPolylineVertex
 10
1022.9659568542343
 20
-1513.1364462957908
 30
-0.000000000005457
 70
              32
  0
SEQEND
  5
145
100
AcDbEntity
  8
0
370
               0
390
0
 62
               1
  0
POLYLINE
  5
146
100
AcDbEntity
  8
0
370
               0
390
0
 62
               1
100
AcDb3dPolyline
 66
               1
 10
0.0
 20
0.0
 30
0.0
 70
               8
  0
VERTEX
  5
147
100
AcDbEntity
  8
0
370
               0
390
0
 62
               1
100
AcDbVertex
100
AcDb3dPolylineVertex
 10
1026.9480485927975
 20
-1507.8601852662605
 30
-0.000000000005457
 70
              32
  0
VERTEX
  5
148
100
AcDbEntity
  8
0
370
               0
390
0
 62
               1
100
AcDbVertex
100
AcDb3dPolylineVertex
 10
1026.5931357485701
 20
-1508.066146850887
 30
-0.000000000003638
 70
              32
  0
SEQEND
  5
149
100
AcDbEntity
  8
0
370
               0
390
0
 62
               1
  0
SPLINE
  5
14A
100
AcDbEntity
  8
0
370
               0
390
0
 62
               1
100
AcDbSpline
210
0.0
220
0.0
230
1.0
 70
               8
 71
               2
 72
              18
 73
              15
 74
               0
 42
0.000001
 43
0.000001
 40
0.0
 40
0.0
 40
0.0
 40
1.0
 40
2.0
 40
3.0
 40
4.0
 40
5.0
 40
5.0
 40
6.0
 40
7.0
 40
8.0
 40
9.0
 40
10.0
 40
11.0
 40
12.0
 40
12.0
 40
12.0
 10
1129.8647121426534
 20
-1578.9222218026769
 30
0.0
 10
1130.724526338101
 20
-1579.4030275685056
 30
0.0
 10
1132.5683860274276
 20
-1579.8976976733616
 30
0.0
 10
1134.4614979208059
 20
-1580.0605225552383
 30
0.0
 10
1136.3547934386665
 20
-1579.898924801475
 30
0.0
 10
1138.1998052935314
 20
-1579.4048349879204
 30
0.0
 10
1139.0571002980787
 20
-1578.9222218026775
 30
0.0
 10
1139.4956885051629
 20
-1578.6734680184309
 30
0.0
 10
1140.3647552155494
 20
-1577.9352003229355
 30
0.0
 10
1140.8108849295422
 20
-1577.1226703895065
 30
0.0
 10
1141.0344298112136
 20
-1576.2720789855366
 30
0.0
 10
1140.8108849295436
 20
-1575.4282289365483
 30
0.0
 10
1140.3582360482806
 20
-1574.6160592079659
 30
0.0
 10
1139.4956885051643
 20
-1573.8774313076237
 30
0.0
 10
1139.0571002980805
 20
-1573.6286775233771
 30
0.0
  0
SPLINE
  5
14B
100
AcDbEntity
  8
0
370
               0
390
0
 62
               1
100
AcDbSpline
210
0.0
220
0.0
230
1.0
 70
               8
 71
               2
 72
              21
 73
              18
 74
               0
 42
0.000001
 43
0.000001
 40
0.0
 40
0.0
 40
0.0
 40
1.0
 40
2.0
 40
3.0
 40
3.0
 40
4.0
 40
5.0
 40
6.0
 40
7.0
 40
8.0
 40
8.0
 40
9.0
 40
10.0
 40
11.0
 40
12.0
 40
13.0
 40
14.0
 40
14.0
 40
14.0
 10
1139.0571002980805
 20
-1573.6286775233771
 30
0.0
 10
1138.2323733392645
 20
-1573.165402813016
 30
0.0
 10
1136.1311968737327
 20
-1572.5869665484433
 30
0.0
 10
1133.8329976777145
 20
-1572.4987180675676
 30
0.0
 10
1132.7785824272019
 20
-1572.6598916822359
 30
0.0
 10
1131.7814034021708
 20
-1572.8088919308684
 30
0.0
 10
1130.3356655840498
 20
-1573.3593681496091
 30
0.0
 10
1129.4402263858369
 20
-1573.8694560635304
 30
0.0
 10
1128.7352939291709
 20
-1574.4664611119815
 30
0.0
 10
1128.3057196480372
 20
-1575.045158213321
 30
0.0
 10
1128.1823883494881
 20
-1575.3066638218856
 30
0.0
 10
1128.067301571095
 20
-1575.5517608668824
 30
0.0
 10
1127.9332177162364
 20
-1576.1700516301103
 30
0.0
 10
1128.0222323550533
 20
-1576.9048794623134
 30
0.0
 10
1128.3596695765609
 20
-1577.6162272899569
 30
0.0
 10
1128.9194556692637
 20
-1578.2632683107863
 30
0.0
 10
1129.5570272619088
 20
-1578.7462991931609
 30
0.0
 10
1129.8647121426534
 20
-1578.9222218026769
 30
0.0
  0
SPLINE
  5
14C
100
AcDbEntity
  8
0
370
               0
390
0
 62
               1
100
AcDbSpline
210
0.0
220
0.0
230
1.0
 70
               8
 71
               2
 72
              18
 73
              15
 74
               0
 42
0.000001
 43
0.000001
 40
0.0
 40
0.0
 40
0.0
 40
1.0
 40
2.0
 40
3.0
 40
4.0
 40
5.0
 40
5.0
 40
6.0
 40
7.0
 40
8.0
 40
9.0
 40
10.0
 40
11.0
 40
12.0
 40
12.0
 40
12.0
 10
931.87481341039154
 20
-1464.9074219408399
 30
0.0
 10
932.73462760583914
 20
-1465.3882277066687
 30
0.0
 10
934.57848729516616
 20
-1465.8828978115241
 30
0.0
 10
936.47159918854493
 20
-1466.0457226934006
 30
0.0
 10
938.36489470640515
 20
-1465.8841249396371
 30
0.0
 10
940.20990656126912
 20
-1465.3900351260822
 30
0.0
 10
941.06720156581662
 20
-1464.9074219408392
 30
0.0
 10
941.50578977290081
 20
-1464.6586681565925
 30
0.0
 10
942.37485648328732
 20
-1463.9204004610967
 30
0.0
 10
942.82098619727969
 20
-1463.1078705276677
 30
0.0
 10
943.0445310789504
 20
-1462.257279123698
 30
0.0
 10
942.82098619727969
 20
-1461.4134290747097
 30
0.0
 10
942.36833731601644
 20
-1460.6012593461273
 30
0.0
 10
941.50578977290036
 20
-1459.8626314457852
 30
0.0
 10
941.06720156581594
 20
-1459.6138776615387
 30
0.0
  0
SPLINE
  5
14D
100
AcDbEntity
  8
0
370
               0
390
0
 62
               1
100
AcDbSpline
210
0.0
220
0.0
230
1.0
 70
               8
 71
               2
 72
              21
 73
              18
 74
               0
 42
0.000001
 43
0.000001
 40
0.0
 40
0.0
 40
0.0
 40
1.0
 40
2.0
 40
3.0
 40
3.0
 40
4.0
 40
5.0
 40
6.0
 40
7.0
 40
8.0
 40
8.0
 40
9.0
 40
10.0
 40
11.0
 40
12.0
 40
13.0
 40
14.0
 40
14.0
 40
14.0
 10
941.06720156581594
 20
-1459.6138776615387
 30
0.0
 10
940.24247460700019
 20
-1459.1506029511777
 30
0.0
 10
938.14129814146793
 20
-1458.5721666866052
 30
0.0
 10
935.8430989454497
 20
-1458.4839182057301
 30
0.0
 10
934.78868369493682
 20
-1458.6450918203984
 30
0.0
 10
933.79150466990598
 20
-1458.7940920690312
 30
0.0
 10
932.34576685178547
 20
-1459.3445682877721
 30
0.0
 10
931.45032765357325
 20
-1459.8546562016934
 30
0.0
 10
930.74539519690791
 20
-1460.451661250145
 30
0.0
 10
930.31582091577263
 20
-1461.0303583514844
 30
0.0
 10
930.19248961722462
 20
-1461.2918639600489
 30
0.0
 10
930.07740283883152
 20
-1461.5369610050457
 30
0.0
 10
929.9433189839732
 20
-1462.1552517682735
 30
0.0
 10
930.03233362279036
 20
-1462.8900796004768
 30
0.0
 10
930.36977084429839
 20
-1463.6014274281201
 30
0.0
 10
930.92955693700117
 20
-1464.2484684489493
 30
0.0
 10
931.56712852964699
 20
-1464.7314993313239
 30
0.0
 10
931.87481341039154
 20
-1464.9074219408399
 30
0.0
  0
SPLINE
  5
14E
100
AcDbEntity
  8
0
370
               0
390
0
  6
Continuous
 62
               1
100
AcDbSpline
210
0.0
220
0.0
230
1.0
 70
               4
 71
               2
 72
               6
 73
               3
 74
               0
 42
0.000001
 43
0.000001
 40
0.0
 40
0.0
 40
0.0
 40
1.0
 40
1.0
 40
1.0
 10
1047.9659568542352
 20
-1519.2680492898548
 30
-0.0000000000054608
 41
1.0
 10
1047.9659571723464
 20
-1522.2496711314134
 30
-0.0000000000054615
 41
0.9238795207554579
 10
1044.3047916190685
 20
-1524.3579961545133
 30
-0.0000000000054608
 41
1.0
  0
SPLINE
  5
14F
100
AcDbEntity
  8
0
370
               0
390
0
  6
Continuous
 62
               1
100
AcDbSpline
210
0.0
220
0.0
230
1.0
 70
               4
 71
               2
 72
               8
 73
               5
 74
               0
 42
0.000001
 43
0.000001
 40
0.0
 40
0.0
 40
0.0
 40
0.5
 40
0.5
 40
1.0
 40
1.0
 40
1.0
 10
1044.3047916190685
 20
-1524.3579961545133
 30
-0.00000000000546
 41
1.0
 10
1038.3988710451097
 20
-1527.7589896221184
 30
-0.0000000000054599
 41
0.8314696123025254
 10
1030.6824139496725
 20
-1525.9183852208284
 30
-0.0000000000054579
 41
1.0
 10
1022.9659568542355
 20
-1524.0777808195382
 30
-0.000000000005456
 41
0.8314696123025254
 10
1022.9659568542352
 20
-1519.2680497321098
 30
-0.0000000000054547
 41
1.0
  0
SPLINE
  5
150
100
AcDbEntity
  8
0
370
               0
390
0
  6
Continuous
 62
               1
100
AcDbSpline
210
0.0
220
0.0
230
1.0
 70
               4
 71
               2
 72
               8
 73
               5
 74
               0
 42
0.000001
 43
0.000001
 40
0.0
 40
0.0
 40
0.0
 40
0.5
 40
0.5
 40
1.0
 40
1.0
 40
1.0
 10
1170.8061947733595
 20
-1184.8484246493049
 30
-0.0000000000054574
 41
1.0
 10
1170.8061947733609
 20
-1186.8460503018932
 30
-0.0000000000054581
 41
0.8742421625678323
 10
1169.3395381822729
 20
-1188.7465840194477
 30
-0.0000000000054582
 41
1.0
 10
1167.8728815911854
 20
-1190.6471177370015
 30
-0.0000000000054583
 41
0.8742421625678323
 10
1166.3223360047014
 20
-1190.6587314562087
 30
-0.0000000000054578
 41
1.0
  0
SPLINE
  5
151
100
AcDbEntity
  8
0
370
               0
390
0
 62
               1
100
AcDbSpline
210
0.0
220
0.0
230
1.0
 70
               8
 71
               2
 72
              11
 73
               8
 74
               0
 42
0.000001
 43
0.000001
 40
0.0
 40
0.0
 40
0.0
 40
1.0
 40
2.0
 40
3.0
 40
4.0
 40
5.0
 40
6.0
 40
6.0
 40
6.0
 10
1167.535586711067
 20
-1190.3243294519893
 30
0.0
 10
1168.1915515863134
 20
-1189.8940677925666
 30
0.0
 10
1169.0692786953691
 20
-1188.9399546154132
 30
0.0
 10
1169.6743942177995
 20
-1188.086752046054
 30
0.0
 10
1170.1744581767953
 20
-1187.1520754400326
 30
0.0
 10
1170.5375163299464
 20
-1186.2002705926509
 30
0.0
 10
1170.7749913480893
 20
-1185.1939701530628
 30
0.0
 10
1170.8014725179896
 20
-1184.6530271213483
 30
0.0
  0
SPLINE
  5
152
100
AcDbEntity
  8
0
370
               0
390
0
 62
               1
100
AcDbSpline
210
0.0
220
0.0
230
1.0
 70
               8
 71
               2
 72
              20
 73
              17
 74
               0
 42
0.000001
 43
0.000001
 40
0.0
 40
0.0
 40
0.0
 40
1.0
 40
2.0
 40
3.0
 40
4.0
 40
5.0
 40
6.0
 40
7.0
 40
8.0
 40
8.0
 40
9.0
 40
10.0
 40
11.0
 40
12.0
 40
13.0
 40
14.0
 40
14.0
 40
14.0
 10
1166.0025909166625
 20
-1189.441535886222
 30
0.0
 10
1166.0148497652099
 20
-1189.7189593388553
 30
0.0
 10
1166.1450836874551
 20
-1190.3369260733357
 30
0.0
 10
1166.396147947823
 20
-1190.7914253611802
 30
0.0
 10
1166.6060956451288
 20
-1191.0441359734082
 30
0.0
 10
1166.9892777127457
 20
-1191.3473049400291
 30
0.0
 10
1167.6381114624578
 20
-1191.5018846884454
 30
0.0
 10
1168.3418707166461
 20
-1191.4071033471423
 30
0.0
 10
1168.9479681260555
 20
-1191.1524289756094
 30
0.0
 10
1169.194847922437
 20
-1191.0009625815092
 30
0.0
 10
1169.4647628784674
 20
-1190.8356281577203
 30
0.0
 10
1170.0834709347855
 20
-1190.3353244577897
 30
0.0
 10
1171.1276142726424
 20
-1189.1708438785918
 30
0.0
 10
1171.8188039884544
 20
-1187.7169356120232
 30
0.0
 10
1172.1124976229312
 20
-1186.7571908737655
 30
0.0
 10
1172.2192505026569
 20
-1185.9760918373399
 30
0.0
 10
1172.2204083357319
 20
-1185.6628160768905
 30
0.0
  0
SPLINE
  5
153
100
AcDbEntity
  8
0
370
               0
390
0
  6
Continuous
 62
               1
100
AcDbSpline
210
0.0
220
0.0
230
1.0
 70
               4
 71
               2
 72
               8
 73
               5
 74
               0
 42
0.000001
 43
0.000001
 40
0.0
 40
0.0
 40
0.0
 40
0.5
 40
0.5
 40
1.0
 40
1.0
 40
1.0
 10
1172.9275151169195
 20
-1185.6628160768892
 30
-0.0000000000036381
 41
1.0
 10
1172.9275151169209
 20
-1189.6687969886166
 30
-0.000000000003639
 41
0.7071067811865476
 10
1169.4626918891072
 20
-1191.6640559862012
 30
-0.0000000000036389
 41
1.0
 10
1165.9978686612935
 20
-1193.6593149837854
 30
-0.0000000000036387
 41
0.7071067811865476
 10
1165.9978686612922
 20
-1189.653334072058
 30
-0.0000000000036379
 41
1.0
  0
SPLINE
  5
154
100
AcDbEntity
  8
0
370
               0
390
0
  6
Continuous
 62
               1
100
AcDbSpline
210
0.0
220
0.0
230
1.0
 70
               4
 71
               2
 72
               8
 73
               5
 74
               0
 42
0.000001
 43
0.000001
 40
0.0
 40
0.0
 40
0.0
 40
0.5
 40
0.5
 40
1.0
 40
1.0
 40
1.0
 10
1170.8061947733595
 20
-1242.0767233882821
 30
-0.0000000000054574
 41
1.0
 10
1170.8061947733604
 20
-1244.0743490408704
 30
-0.0000000000054581
 41
0.8742421625678342
 10
1169.3395381822729
 20
-1245.9748827584249
 30
-0.0000000000054582
 41
1.0
 10
1167.872881591185
 20
-1247.8754164759791
 30
-0.0000000000054583
 41
0.8742421625678342
 10
1166.3223360047014
 20
-1247.8870301951858
 30
-0.0000000000054578
 41
1.0
  0
SPLINE
  5
155
100
AcDbEntity
  8
0
370
               0
390
0
 62
               1
100
AcDbSpline
210
0.0
220
0.0
230
1.0
 70
               8
 71
               2
 72
              12
 73
               9
 74
               0
 42
0.000001
 43
0.000001
 40
0.0
 40
0.0
 40
0.0
 40
1.0
 40
2.0
 40
3.0
 40
4.0
 40
5.0
 40
6.0
 40
7.0
 40
7.0
 40
7.0
 10
1167.5355867110652
 20
-1247.5526281909649
 30
0.0
 10
1167.9900681656372
 20
-1247.2573580229102
 30
0.0
 10
1168.7412345409098
 20
-1246.5471375561056
 30
0.0
 10
1169.3822816217084
 20
-1245.7555615880069
 30
0.0
 10
1169.9399411620084
 20
-1244.8540311304255
 30
0.0
 10
1170.3743842556728
 20
-1243.9025133974358
 30
0.0
 10
1170.6629112737633
 20
-1242.9661663216234
 30
0.0
 10
1170.7868280229109
 20
-1242.1950462881105
 30
0.0
 10
1170.8014725179878
 20
-1241.8813258603241
 30
0.0
  0
SPLINE
  5
156
100
AcDbEntity
  8
0
370
               0
390
0
 62
               1
100
AcDbSpline
210
0.0
220
0.0
230
1.0
 70
               8
 71
               2
 72
              20
 73
              17
 74
               0
 42
0.000001
 43
0.000001
 40
0.0
 40
0.0
 40
0.0
 40
1.0
 40
2.0
 40
3.0
 40
4.0
 40
5.0
 40
6.0
 40
7.0
 40
8.0
 40
8.0
 40
9.0
 40
10.0
 40
11.0
 40
12.0
 40
13.0
 40
14.0
 40
14.0
 40
14.0
 10
1166.0025909166625
 20
-1246.6698346252012
 30
0.0
 10
1166.0148497652103
 20
-1246.947258077834
 30
0.0
 10
1166.145083687456
 20
-1247.5652248123149
 30
0.0
 10
1166.3961479478226
 20
-1248.0197241001597
 30
0.0
 10
1166.6060956451292
 20
-1248.2724347123869
 30
0.0
 10
1166.9892777127457
 20
-1248.5756036790081
 30
0.0
 10
1167.6381114624578
 20
-1248.7301834274249
 30
0.0
 10
1168.3418707166461
 20
-1248.6354020861208
 30
0.0
 10
1168.947968126055
 20
-1248.3807277145884
 30
0.0
 10
1169.194847922437
 20
-1248.2292613204881
 30
0.0
 10
1169.4647628784669
 20
-1248.0639268966993
 30
0.0
 10
1170.083470934786
 20
-1247.5636231967687
 30
0.0
 10
1171.1276142726419
 20
-1246.3991426175708
 30
0.0
 10
1171.8188039884544
 20
-1244.9452343510015
 30
0.0
 10
1172.1124976229321
 20
-1243.985489612744
 30
0.0
 10
1172.219250502656
 20
-1243.2043905763192
 30
0.0
 10
1172.2204083357319
 20
-1242.8911148158695
 30
0.0
  0
SPLINE
  5
157
100
AcDbEntity
  8
0
370
               0
390
0
  6
Continuous
 62
               1
100
AcDbSpline
210
0.0
220
0.0
230
1.0
 70
               4
 71
               2
 72
               8
 73
               5
 74
               0
 42
0.000001
 43
0.000001
 40
0.0
 40
0.0
 40
0.0
 40
0.5
 40
0.5
 40
1.0
 40
1.0
 40
1.0
 10
1172.9275151169195
 20
-1242.89111481587
 30
-0.0000000000036381
 41
1.0
 10
1172.9275151169209
 20
-1246.8970957275974
 30
-0.000000000003639
 41
0.7071067811865476
 10
1169.4626918891072
 20
-1248.892354725182
 30
-0.0000000000036389
 41
1.0
 10
1165.9978686612935
 20
-1250.8876137227662
 30
-0.0000000000036387
 41
0.7071067811865476
 10
1165.9978686612922
 20
-1246.8816328110388
 30
-0.0000000000036379
 41
1.0
  0
SPLINE
  5
158
100
AcDbEntity
  8
0
370
               0
390
0
 62
               1
100
AcDbSpline
210
0.0
220
0.0
230
1.0
 70
               8
 71
               2
 72
              20
 73
              17
 74
               0
 42
0.000001
 43
0.000001
 40
0.0
 40
0.0
 40
0.0
 40
1.0
 40
2.0
 40
3.0
 40
4.0
 40
5.0
 40
6.0
 40
7.0
 40
8.0
 40
8.0
 40
9.0
 40
10.0
 40
11.0
 40
12.0
 40
13.0
 40
14.0
 40
14.0
 40
14.0
 10
900.13044119048106
 20
-1036.3359475003285
 30
0.0
 10
900.14270003902845
 20
-1036.6133709529618
 30
0.0
 10
900.27293396127459
 20
-1037.2313376874417
 30
0.0
 10
900.52399822164136
 20
-1037.6858369752872
 30
0.0
 10
900.73394591894828
 20
-1037.938547587514
 30
0.0
 10
901.11712798656424
 20
-1038.2417165541353
 30
0.0
 10
901.76596173627638
 20
-1038.3962963025522
 30
0.0
 10
902.46972099046491
 20
-1038.3015149612488
 30
0.0
 10
903.07581839987404
 20
-1038.0468405897159
 30
0.0
 10
903.32269819625583
 20
-1037.8953741956157
 30
0.0
 10
903.59261315228571
 20
-1037.7300397718273
 30
0.0
 10
904.21132120860455
 20
-1037.229736071896
 30
0.0
 10
905.25546454646053
 20
-1036.065255492698
 30
0.0
 10
905.94665426227346
 20
-1034.6113472261295
 30
0.0
 10
906.24034789675045
 20
-1033.6516024878715
 30
0.0
 10
906.34710077647549
 20
-1032.8705034514467
 30
0.0
 10
906.3482586095505
 20
-1032.557227690997
 30
0.0
  0
SPLINE
  5
159
100
AcDbEntity
  8
0
370
               0
390
0
  6
Continuous
 62
               1
100
AcDbSpline
210
0.0
220
0.0
230
1.0
 70
               4
 71
               2
 72
               8
 73
               5
 74
               0
 42
0.000001
 43
0.000001
 40
0.0
 40
0.0
 40
0.0
 40
0.5
 40
0.5
 40
1.0
 40
1.0
 40
1.0
 10
907.05536539073762
 20
-1032.5572276909957
 30
-0.0000000000036381
 41
1.0
 10
907.05536539073898
 20
-1036.5632086027231
 30
-0.0000000000036385
 41
0.7071067811865476
 10
903.59054216292509
 20
-1038.5584676003077
 30
-0.0000000000036384
 41
1.0
 10
900.12571893511165
 20
-1040.5537265978921
 30
-0.0000000000036384
 41
0.7071067811865476
 10
900.12571893510983
 20
-1036.5477456861645
 30
-0.0000000000036379
 41
1.0
  0
SPLINE
  5
15A
100
AcDbEntity
  8
0
370
               0
390
0
  6
Continuous
 62
               1
100
AcDbSpline
210
0.0
220
0.0
230
1.0
 70
               4
 71
               2
 72
               8
 73
               5
 74
               0
 42
0.000001
 43
0.000001
 40
0.0
 40
0.0
 40
0.0
 40
0.5
 40
0.5
 40
1.0
 40
1.0
 40
1.0
 10
904.9340450471783
 20
-1031.7428362634114
 30
-0.0000000000054578
 41
1.0
 10
904.93404504717876
 20
-1033.7404619160002
 30
-0.0000000000054584
 41
0.8742421625678389
 10
903.46738845609127
 20
-1035.6409956335542
 30
-0.0000000000054584
 41
1.0
 10
902.0007318650039
 20
-1037.5415293511082
 30
-0.0000000000054584
 41
0.8742421625678389
 10
900.45018627851994
 20
-1037.5531430703152
 30
-0.0000000000054577
 41
1.0
  0
SPLINE
  5
15B
100
AcDbEntity
  8
0
370
               0
390
0
 62
               1
100
AcDbSpline
210
0.0
220
0.0
230
1.0
 70
               8
 71
               2
 72
              11
 73
               8
 74
               0
 42
0.000001
 43
0.000001
 40
0.0
 40
0.0
 40
0.0
 40
1.0
 40
2.0
 40
3.0
 40
4.0
 40
5.0
 40
6.0
 40
6.0
 40
6.0
 10
901.66343698488561
 20
-1037.2187410660943
 30
0.0
 10
902.31940186013219
 20
-1036.7884794066717
 30
0.0
 10
903.19712896918793
 20
-1035.8343662295174
 30
0.0
 10
903.80224449161858
 20
-1034.9811636601585
 30
0.0
 10
904.30230845061431
 20
-1034.0464870541371
 30
0.0
 10
904.66536660376539
 20
-1033.0946822067558
 30
0.0
 10
904.90284162190744
 20
-1032.088381767167
 30
0.0
 10
904.9293227918082
 20
-1031.5474387354525
 30
0.0
  0
SPLINE
  5
15C
100
AcDbEntity
  8
0
370
               0
390
0
 62
               1
100
AcDbSpline
210
0.0
220
0.0
230
1.0
 70
               8
 71
               2
 72
              20
 73
              17
 74
               0
 42
0.000001
 43
0.000001
 40
0.0
 40
0.0
 40
0.0
 40
1.0
 40
2.0
 40
3.0
 40
4.0
 40
5.0
 40
6.0
 40
7.0
 40
8.0
 40
8.0
 40
9.0
 40
10.0
 40
11.0
 40
12.0
 40
13.0
 40
14.0
 40
14.0
 40
14.0
 10
900.13044119048197
 20
-1093.5642462393057
 30
0.0
 10
900.14270003902959
 20
-1093.8416696919387
 30
0.0
 10
900.2729339612755
 20
-1094.4596364264194
 30
0.0
 10
900.5239982216425
 20
-1094.9141357142639
 30
0.0
 10
900.73394591894873
 20
-1095.1668463264914
 30
0.0
 10
901.11712798656561
 20
-1095.4700152931127
 30
0.0
 10
901.76596173627729
 20
-1095.6245950415296
 30
0.0
 10
902.46972099046582
 20
-1095.5298137002255
 30
0.0
 10
903.07581839987495
 20
-1095.2751393286931
 30
0.0
 10
903.32269819625674
 20
-1095.1236729345928
 30
0.0
 10
903.59261315228684
 20
-1094.9583385108044
 30
0.0
 10
904.21132120860523
 20
-1094.4580348108734
 30
0.0
 10
905.25546454646189
 20
-1093.293554231675
 30
0.0
 10
905.94665426227436
 20
-1091.8396459651062
 30
0.0
 10
906.24034789675159
 20
-1090.8799012268491
 30
0.0
 10
906.34710077647617
 20
-1090.0988021904236
 30
0.0
 10
906.34825860955164
 20
-1089.7855264299742
 30
0.0
  0
SPLINE
  5
15D
100
AcDbEntity
  8
0
370
               0
390
0
  6
Continuous
 62
               1
100
AcDbSpline
210
0.0
220
0.0
230
1.0
 70
              12
 71
               2
 72
               8
 73
               5
 74
               0
 42
0.000001
 43
0.000001
 40
0.0
 40
0.0
 40
0.0
 40
0.5
 40
0.5
 40
1.0
 40
1.0
 40
1.0
 10
907.05536539073853
 20
-1089.7855264299728
 30
-0.0000000000054571
 41
1.0
 10
907.05536539073989
 20
-1093.7915073417005
 30
-0.0000000000054575
 41
0.7071067811865476
 10
903.590542162926
 20
-1095.7867663392849
 30
-0.0000000000054574
 41
1.0
 10
900.12571893511245
 20
-1097.7820253368691
 30
-0.0000000000054574
 41
0.7071067811865476
 10
900.12571893511074
 20
-1093.7760444251417
 30
-0.0000000000054569
 41
1.0
  0
SPLINE
  5
15E
100
AcDbEntity
  8
0
370
               0
390
0
  6
Continuous
 62
               1
100
AcDbSpline
210
0.0
220
0.0
230
1.0
 70
               4
 71
               2
 72
               8
 73
               5
 74
               0
 42
0.000001
 43
0.000001
 40
0.0
 40
0.0
 40
0.0
 40
0.5
 40
0.5
 40
1.0
 40
1.0
 40
1.0
 10
904.9340450471783
 20
-1088.9711350023904
 30
-0.0000000000036388
 41
1.0
 10
904.93404504717876
 20
-1090.968760654979
 30
-0.0000000000036395
 41
0.8742421625678389
 10
903.46738845609127
 20
-1092.8692943725332
 30
-0.0000000000036394
 41
1.0
 10
902.0007318650039
 20
-1094.7698280900872
 30
-0.0000000000036394
 41
0.8742421625678389
 10
900.45018627851994
 20
-1094.7814418092939
 30
-0.0000000000036387
 41
1.0
  0
SPLINE
  5
15F
100
AcDbEntity
  8
0
370
               0
390
0
 62
               1
100
AcDbSpline
210
0.0
220
0.0
230
1.0
 70
               8
 71
               2
 72
              11
 73
               8
 74
               0
 42
0.000001
 43
0.000001
 40
0.0
 40
0.0
 40
0.0
 40
1.0
 40
2.0
 40
3.0
 40
4.0
 40
5.0
 40
6.0
 40
6.0
 40
6.0
 10
901.6634369848847
 20
-1094.4470398050717
 30
0.0
 10
902.31940186013082
 20
-1094.0167781456489
 30
0.0
 10
903.19712896918679
 20
-1093.062664968495
 30
0.0
 10
903.8022444916179
 20
-1092.2094623991356
 30
0.0
 10
904.30230845061271
 20
-1091.274785793114
 30
0.0
 10
904.66536660376448
 20
-1090.3229809457325
 30
0.0
 10
904.90284162190653
 20
-1089.3166805061442
 30
0.0
 10
904.92932279180729
 20
-1088.7757374744297
 30
0.0
  0
SPLINE
  5
160
100
AcDbEntity
  8
0
370
               0
390
0
  6
Continuous
 62
               1
100
AcDbSpline
210
0.0
220
0.0
230
1.0
 70
              12
 71
               2
 72
               6
 73
               3
 74
               0
 42
0.000001
 43
0.000001
 40
0.0
 40
0.0
 40
0.0
 40
1.0
 40
1.0
 40
1.0
 10
941.06720156581844
 20
-1462.0665190360696
 30
-0.0000000000036384
 41
1.0
 10
942.12305902436879
 20
-1462.6745469081486
 30
-0.0000000000036389
 41
0.9746138498089325
 10
942.61226617024602
 20
-1463.4869704884529
 30
-0.0000000000036392
 41
1.0
  0
SPLINE
  5
161
100
AcDbEntity
  8
0
370
               0
390
0
  6
Continuous
 62
               1
100
AcDbSpline
210
0.0
220
0.0
230
1.0
 70
               4
 71
               2
 72
               6
 73
               3
 74
               0
 42
0.000001
 43
0.000001
 40
0.0
 40
0.0
 40
0.0
 40
1.0
 40
1.0
 40
1.0
 10
1139.0571002980814
 20
-1576.0813188979037
 30
-0.0000000000054572
 41
1.0
 10
1140.1129577566321
 20
-1576.6893467699826
 30
-0.0000000000054574
 41
0.9746138498089274
 10
1140.6021649025092
 20
-1577.5017703502872
 30
-0.0000000000054576
 41
1.0
  0
SPLINE
  5
162
100
AcDbEntity
  8
0
370
               0
390
0
 62
               1
100
AcDbSpline
210
0.0
220
0.0
230
1.0
 70
               8
 71
               2
 72
              16
 73
              13
 74
               0
 42
0.000001
 43
0.000001
 40
0.0
 40
0.0
 40
0.0
 40
1.0
 40
2.0
 40
3.0
 40
4.0
 40
5.0
 40
5.0
 40
6.0
 40
7.0
 40
8.0
 40
9.0
 40
10.0
 40
10.0
 40
10.0
 10
1148.2494884535113
 20
-1607.8425845737042
 30
0.0
 10
1148.4544417352604
 20
-1607.9614424342296
 30
0.0
 10
1148.7934478608986
 20
-1608.098028241508
 30
0.0
 10
1149.2033718548823
 20
-1608.2222389190915
 30
0.0
 10
1149.7182530203468
 20
-1608.2280335509602
 30
0.0
 10
1150.0967184386932
 20
-1608.1248734043802
 30
0.0
 10
1150.2494884535122
 20
-1608.0364919399694
 30
0.0
 10
1150.3576687725781
 20
-1607.9736156474694
 30
0.0
 10
1150.6124337830179
 20
-1607.7530562901302
 30
0.0
 10
1150.8530390933165
 20
-1607.3814926873902
 30
0.0
 10
1151.0111848907577
 20
-1606.924040015766
 30
0.0
 10
1151.0784455806165
 20
-1606.4384599182526
 30
0.0
 10
1151.0779155782598
 20
-1606.2011789295068
 30
0.0
  0
SPLINE
  5
163
100
AcDbEntity
  8
0
370
               0
390
0
  6
Continuous
 62
               1
100
AcDbSpline
210
0.0
220
0.0
230
1.0
 70
               4
 71
               2
 72
               8
 73
               5
 74
               0
 42
0.000001
 43
0.000001
 40
0.0
 40
0.0
 40
0.0
 40
0.5
 40
0.5
 40
1.0
 40
1.0
 40
1.0
 10
922.68242525495805
 20
-1433.1461562650402
 30
-0.0000000000036382
 41
1.0
 10
922.38953203614449
 20
-1432.9774902778472
 30
-0.0000000000036381
 41
0.9238795325112866
 10
922.18242525495805
 20
-1432.6187714056209
 30
-0.000000000003638
 41
1.0
 10
921.97531847377138
 20
-1432.2600525333944
 30
-0.0000000000036378
 41
0.9238795325112866
 10
921.97531847377161
 20
-1431.9214134264055
 30
-0.0000000000036377
 41
1.0
  0
SPLINE
  5
164
100
AcDbEntity
  8
0
370
               0
390
0
  6
Continuous
 62
               1
100
AcDbSpline
210
0.0
220
0.0
230
1.0
 70
               4
 71
               2
 72
               8
 73
               5
 74
               0
 42
0.000001
 43
0.000001
 40
0.0
 40
0.0
 40
0.0
 40
0.5
 40
0.5
 40
1.0
 40
1.0
 40
1.0
 10
930.32974880596214
 20
-1463.4869704884541
 30
-0.0000000000054544
 41
1.0
 10
931.50866068657035
 20
-1461.5291580996118
 30
-0.0000000000054544
 41
0.8748828977473644
 10
935.01570635126143
 20
-1461.0652130449132
 30
-0.0000000000054556
 41
1.0
 10
938.52275201595251
 20
-1460.6012679902146
 30
-0.0000000000054568
 41
0.8748828977473644
 10
941.06720156581412
 20
-1462.0665190360676
 30
-0.0000000000054581
 41
1.0
  0
SPLINE
  5
165
100
AcDbEntity
  8
0
370
               0
390
0
  6
Continuous
 62
               1
100
AcDbSpline
210
0.0
220
0.0
230
1.0
 70
               4
 71
               2
 72
               8
 73
               5
 74
               0
 42
0.000001
 43
0.000001
 40
0.0
 40
0.0
 40
0.0
 40
0.5
 40
0.5
 40
1.0
 40
1.0
 40
1.0
 10
1128.3196475382251
 20
-1577.5017703502881
 30
-0.0000000000036367
 41
1.0
 10
1129.498559418834
 20
-1575.5439579614458
 30
-0.0000000000036364
 41
0.8748828977473686
 10
1133.0056050835242
 20
-1575.0800129067472
 30
-0.0000000000036369
 41
1.0
 10
1136.5126507482155
 20
-1574.6160678520482
 30
-0.0000000000036374
 41
0.8748828977473686
 10
1139.0571002980773
 20
-1576.0813188979016
 30
-0.0000000000036382
 41
1.0
  0
SPLINE
  5
166
100
AcDbEntity
  8
0
370
               0
390
0
  6
Continuous
 62
               1
100
AcDbSpline
210
0.0
220
0.0
230
1.0
 70
              12
 71
               2
 72
               6
 73
               3
 74
               0
 42
0.000001
 43
0.000001
 40
0.0
 40
0.0
 40
0.0
 40
1.0
 40
1.0
 40
1.0
 10
880.25601838377167
 20
-1045.546770960982
 30
-0.0000000000054552
 41
1.0
 10
880.25601838376565
 20
-1021.0203572157103
 30
-0.0000000000054488
 41
0.7071067811865485
 10
901.4692218193594
 20
-1008.8044858019308
 30
-0.0000000000054505
 41
1.0
  0
SPLINE
  5
167
100
AcDbEntity
  8
0
370
               0
390
0
  6
Continuous
 62
               1
100
AcDbSpline
210
0.0
220
0.0
230
1.0
 70
               4
 71
               2
 72
               6
 73
               3
 74
               0
 42
0.000001
 43
0.000001
 40
0.0
 40
0.0
 40
0.0
 40
1.0
 40
1.0
 40
1.0
 10
901.4692218193594
 20
-1008.8044858019308
 30
-0.0000000000054539
 41
1.0
 10
910.23199862758599
 20
-1003.7583382437864
 30
-0.0000000000054552
 41
0.9242491046442251
 10
916.44018777900112
 20
-1007.3333962394726
 30
-0.000000000005457
 41
1.0
  0
SPLINE
  5
168
100
AcDbEntity
  8
0
370
               0
390
0
  6
Continuous
 62
               1
100
AcDbSpline
210
0.0
220
0.0
230
1.0
 70
               4
 71
               2
 72
              10
 73
               7
 74
               0
 42
0.000001
 43
0.000001
 40
0.0
 40
0.0
 40
0.0
 40
0.3333333333333333
 40
0.3333333333333333
 40
0.6666666666666666
 40
0.6666666666666666
 40
1.0
 40
1.0
 40
1.0
 10
900.12571893511074
 20
-1093.7760444251417
 30
-0.0000000000054569
 41
1.0
 10
900.12571893511006
 20
-1091.4631902673873
 30
-0.0000000000054566
 41
0.8660254037844386
 10
901.85813054901666
 20
-1089.3091336897178
 30
-0.0000000000054565
 41
1.0
 10
903.59054216292293
 20
-1087.1550771120483
 30
-0.0000000000054564
 41
0.8660254037844386
 10
905.32295377683033
 20
-1087.3138746921331
 30
-0.0000000000054566
 41
1.0
 10
907.05536539073762
 20
-1087.4726722722185
 30
-0.0000000000054568
 41
0.8660254037844386
 10
907.05536539073853
 20
-1089.7855264299728
 30
-0.0000000000054571
 41
1.0
  0
SPLINE
  5
169
100
AcDbEntity
  8
0
370
               0
390
0
  6
Continuous
 62
               1
100
AcDbSpline
210
0.0
220
0.0
230
1.0
 70
               4
 71
               2
 72
              10
 73
               7
 74
               0
 42
0.000001
 43
0.000001
 40
0.0
 40
0.0
 40
0.0
 40
0.3333333333333333
 40
0.3333333333333333
 40
0.6666666666666666
 40
0.6666666666666666
 40
1.0
 40
1.0
 40
1.0
 10
900.12571893510983
 20
-1036.5477456861645
 30
-0.0000000000036379
 41
1.0
 10
900.12571893510949
 20
-1034.2348915284097
 30
-0.0000000000036376
 41
0.8660254037844386
 10
901.85813054901575
 20
-1032.0808349507406
 30
-0.0000000000036375
 41
1.0
 10
903.59054216292225
 20
-1029.9267783730711
 30
-0.0000000000036374
 41
0.8660254037844386
 10
905.32295377682942
 20
-1030.085575953156
 30
-0.0000000000036376
 41
1.0
 10
907.05536539073671
 20
-1030.2443735332413
 30
-0.0000000000036378
 41
0.8660254037844386
 10
907.05536539073762
 20
-1032.5572276909957
 30
-0.0000000000036381
 41
1.0
  0
SPLINE
  5
16A
100
AcDbEntity
  8
0
370
               0
390
0
 62
               1
100
AcDbSpline
210
0.0
220
0.0
230
1.0
 70
               8
 71
               2
 72
              16
 73
              13
 74
               0
 42
0.000001
 43
0.000001
 40
0.0
 40
0.0
 40
0.0
 40
1.0
 40
2.0
 40
3.0
 40
4.0
 40
5.0
 40
5.0
 40
6.0
 40
7.0
 40
8.0
 40
9.0
 40
10.0
 40
10.0
 40
10.0
 10
924.80374559851691
 20
-1022.3366152748085
 30
0.0
 10
924.80778185069596
 20
-1020.8081259753292
 30
0.0
 10
924.4113936395305
 20
-1017.3844087694483
 30
0.0
 10
923.30611442639417
 20
-1013.8820847857382
 30
0.0
 10
921.9784259996726
 20
-1011.6861798828545
 30
0.0
 10
920.25548664220639
 20
-1009.549398872666
 30
0.0
 10
918.59054216292168
 20
-1008.5717676963275
 30
0.0
 10
917.60882823117834
 20
-1008.0039284871601
 30
0.0
 10
914.996299581367
 20
-1007.1932379809172
 30
0.0
 10
911.64524449508974
 20
-1007.1219152841821
 30
0.0
 10
908.06753987124455
 20
-1007.9065864038304
 30
0.0
 10
904.91038800347326
 20
-1009.2613426432648
 30
0.0
 10
903.59054216292395
 20
-1010.0260729433037
 30
0.0
  0
SPLINE
  5
16B
100
AcDbEntity
  8
0
370
               0
390
0
 62
               1
100
AcDbSpline
210
0.0
220
0.0
230
1.0
 70
               8
 71
               2
 72
              12
 73
               9
 74
               0
 42
0.000001
 43
0.000001
 40
0.0
 40
0.0
 40
0.0
 40
1.0
 40
2.0
 40
3.0
 40
3.0
 40
4.0
 40
5.0
 40
6.0
 40
6.0
 40
6.0
 10
903.59054216292395
 20
-1010.0260729433037
 30
0.0
 10
900.8509810733741
 20
-1011.6290471614852
 30
0.0
 10
896.3538033685544
 20
-1015.5378471195786
 30
0.0
 10
891.13012536564486
 20
-1021.4382182052741
 30
0.0
 10
888.59054216292623
 20
-1025.8476187258889
 30
0.0
 10
886.0361492901369
 20
-1030.257062580386
 30
0.0
 10
883.53681180792853
 20
-1037.7336535304003
 30
0.0
 10
882.39432659708189
 20
-1043.5915603677968
 30
0.0
 10
882.37733872733054
 20
-1046.7683581023516
 30
0.0
  0
SPLINE
  5
16C
100
AcDbEntity
  8
0
370
               0
390
0
  6
Continuous
 62
               1
100
AcDbSpline
210
0.0
220
0.0
230
1.0
 70
              12
 71
               2
 72
               6
 73
               3
 74
               0
 42
0.000001
 43
0.000001
 40
0.0
 40
0.0
 40
0.0
 40
1.0
 40
1.0
 40
1.0
 10
1187.8474681999537
 20
-1585.0270018123006
 30
-0.0000000000054577
 41
1.0
 10
1187.8474681999537
 20
-1586.3852639993806
 30
-0.0000000000054581
 41
0.9235091016561617
 10
1187.0151699215448
 20
-1586.8645527017127
 30
-0.0000000000054581
 41
1.0
  0
SPLINE
  5
16D
100
AcDbEntity
  8
0
370
               0
390
0
  6
Continuous
 62
               1
100
AcDbSpline
210
0.0
220
0.0
230
1.0
 70
               4
 71
               2
 72
               8
 73
               5
 74
               0
 42
0.000001
 43
0.000001
 40
0.0
 40
0.0
 40
0.0
 40
0.5
 40
0.5
 40
1.0
 40
1.0
 40
1.0
 10
1146.1281681099531
 20
-1198.6523593468773
 30
-0.0000000000036356
 41
1.0
 10
1146.1281681099508
 20
-1188.4931861372118
 30
-0.0000000000036326
 41
0.9238795325112863
 10
1152.3413715455445
 20
-1177.7316199704155
 30
-0.0000000000036312
 41
1.0
 10
1158.5545749811381
 20
-1166.9700538036193
 30
-0.0000000000036299
 41
0.9238795325112863
 10
1167.3413715455408
 20
-1161.910074187826
 30
-0.0000000000036309
 41
1.0
  0
SPLINE
  5
16E
100
AcDbEntity
  8
0
370
               0
390
0
  6
Continuous
 62
               1
100
AcDbSpline
210
0.0
220
0.0
230
1.0
 70
               4
 71
               2
 72
               6
 73
               3
 74
               0
 42
0.000001
 43
0.000001
 40
0.0
 40
0.0
 40
0.0
 40
1.0
 40
1.0
 40
1.0
 10
1167.3413715455408
 20
-1161.910074187826
 30
-0.0000000000036334
 41
1.0
 10
1176.1041486742311
 20
-1156.8639264451388
 30
-0.0000000000036343
 41
0.9242490997173076
 10
1182.3123378930741
 20
-1160.4389848487399
 30
-0.0000000000036363
 41
1.0
  0
SPLINE
  5
16F
100
AcDbEntity
  8
0
370
               0
390
0
  6
Continuous
 62
               1
100
AcDbSpline
210
0.0
220
0.0
230
1.0
 70
               4
 71
               2
 72
              10
 73
               7
 74
               0
 42
0.000001
 43
0.000001
 40
0.0
 40
0.0
 40
0.0
 40
0.3333333333333333
 40
0.3333333333333333
 40
0.6666666666666666
 40
0.6666666666666666
 40
1.0
 40
1.0
 40
1.0
 10
1165.9978686612922
 20
-1246.8816328110388
 30
-0.0000000000036379
 41
1.0
 10
1165.9978686612917
 20
-1244.5687786532842
 30
-0.0000000000036374
 41
0.8660254037844386
 10
1167.7302802751979
 20
-1242.4147220756149
 30
-0.0000000000036372
 41
1.0
 10
1169.4626918891045
 20
-1240.2606654979454
 30
-0.000000000003637
 41
0.8660254037844386
 10
1171.1951035030115
 20
-1240.4194630780303
 30
-0.0000000000036373
 41
1.0
 10
1172.927515116919
 20
-1240.5782606581154
 30
-0.0000000000036376
 41
0.8660254037844386
 10
1172.9275151169195
 20
-1242.89111481587
 30
-0.0000000000036381
 41
1.0
  0
SPLINE
  5
170
100
AcDbEntity
  8
0
370
               0
390
0
  6
Continuous
 62
               1
100
AcDbSpline
210
0.0
220
0.0
230
1.0
 70
               4
 71
               2
 72
              10
 73
               7
 74
               0
 42
0.000001
 43
0.000001
 40
0.0
 40
0.0
 40
0.0
 40
0.3333333333333333
 40
0.3333333333333333
 40
0.6666666666666666
 40
0.6666666666666666
 40
1.0
 40
1.0
 40
1.0
 10
1165.9978686612922
 20
-1189.653334072058
 30
-0.0000000000036379
 41
1.0
 10
1165.9978686612912
 20
-1187.3404799143036
 30
-0.0000000000036374
 41
0.8660254037844386
 10
1167.7302802751979
 20
-1185.1864233366341
 30
-0.0000000000036372
 41
1.0
 10
1169.4626918891045
 20
-1183.0323667589646
 30
-0.000000000003637
 41
0.8660254037844386
 10
1171.1951035030115
 20
-1183.1911643390495
 30
-0.0000000000036373
 41
1.0
 10
1172.927515116919
 20
-1183.3499619191343
 30
-0.0000000000036376
 41
0.8660254037844386
 10
1172.9275151169195
 20
-1185.6628160768892
 30
-0.0000000000036381
 41
1.0
  0
SPLINE
  5
171
100
AcDbEntity
  8
0
370
               0
390
0
 62
               1
100
AcDbSpline
210
0.0
220
0.0
230
1.0
 70
               8
 71
               2
 72
              16
 73
              13
 74
               0
 42
0.000001
 43
0.000001
 40
0.0
 40
0.0
 40
0.0
 40
1.0
 40
2.0
 40
3.0
 40
4.0
 40
5.0
 40
5.0
 40
6.0
 40
7.0
 40
8.0
 40
9.0
 40
10.0
 40
10.0
 40
10.0
 10
1190.675895324699
 20
-1175.442203660702
 30
0.0
 10
1190.6799315768785
 20
-1173.9137143612224
 30
0.0
 10
1190.2835433657128
 20
-1170.4899971553418
 30
0.0
 10
1189.178264152576
 20
-1166.9876731716317
 30
0.0
 10
1187.8505757258545
 20
-1164.791768268748
 30
0.0
 10
1186.1276363683883
 20
-1162.6549872585597
 30
0.0
 10
1184.462691889104
 20
-1161.6773560822207
 30
0.0
 10
1183.4809779573607
 20
-1161.1095168730535
 30
0.0
 10
1180.8684493075493
 20
-1160.2988263668103
 30
0.0
 10
1177.5173942212718
 20
-1160.2275036700757
 30
0.0
 10
1173.9396895974264
 20
-1161.012174789724
 30
0.0
 10
1170.7825377296558
 20
-1162.3669310291584
 30
0.0
 10
1169.4626918891063
 20
-1163.1316613291972
 30
0.0
  0
SPLINE
  5
172
100
AcDbEntity
  8
0
370
               0
390
0
 62
               1
100
AcDbSpline
210
0.0
220
0.0
230
1.0
 70
               8
 71
               2
 72
              12
 73
               9
 74
               0
 42
0.000001
 43
0.000001
 40
0.0
 40
0.0
 40
0.0
 40
1.0
 40
2.0
 40
3.0
 40
3.0
 40
4.0
 40
5.0
 40
6.0
 40
6.0
 40
6.0
 10
1169.4626918891063
 20
-1163.1316613291972
 30
0.0
 10
1166.7231307995567
 20
-1164.7346355473778
 30
0.0
 10
1162.2259530947367
 20
-1168.6434355054726
 30
0.0
 10
1157.0022750918279
 20
-1174.5438065911671
 30
0.0
 10
1154.4626918891086
 20
-1178.9532071117824
 30
0.0
 10
1151.9082990163197
 20
-1183.3626509662797
 30
0.0
 10
1149.4089615341109
 20
-1190.8392419162933
 30
0.0
 10
1148.2664763232638
 20
-1196.6971487536907
 30
0.0
 10
1148.2494884535126
 20
-1199.8739464882451
 30
0.0
  0
SPLINE
  5
173
100
AcDbEntity
  8
0
370
               0
390
0
  6
Continuous
 62
               1
100
AcDbSpline
210
0.0
220
0.0
230
1.0
 70
               4
 71
               2
 72
               8
 73
               5
 74
               0
 42
0.000001
 43
0.000001
 40
0.0
 40
0.0
 40
0.0
 40
0.5
 40
0.5
 40
1.0
 40
1.0
 40
1.0
 10
923.38953203614471
 20
-1431.921413426405
 30
-0.000000000003638
 41
1.0
 10
923.38953203614494
 20
-1432.2600525333935
 30
-0.0000000000036381
 41
0.9238795325112866
 10
923.1824252549585
 20
-1432.6187714056205
 30
-0.0000000000036381
 41
1.0
 10
922.97531847377206
 20
-1432.977490277847
 30
-0.0000000000036382
 41
0.9238795325112866
 10
922.68242525495873
 20
-1433.1461562650402
 30
-0.0000000000036381
 41
1.0
  0
SPLINE
  5
174
100
AcDbEntity
  8
0
370
               0
390
0
  6
Continuous
 62
               1
100
AcDbSpline
210
0.0
220
0.0
230
1.0
 70
               4
 71
               2
 72
               6
 73
               3
 74
               0
 42
0.000001
 43
0.000001
 40
0.0
 40
0.0
 40
0.0
 40
1.0
 40
1.0
 40
1.0
 10
883.91674378692767
 20
-1456.9691200019824
 30
-0.0000000000036384
 41
1.0
 10
883.0844455085188
 20
-1456.4898312996509
 30
-0.000000000003638
 41
0.9235091016561912
 10
883.08444550851857
 20
-1455.1315691125717
 30
-0.0000000000036376
 41
1.0
  0
SPLINE
  5
175
100
AcDbEntity
  8
0
370
               0
390
0
 62
               1
100
AcDbSpline
210
0.0
220
0.0
230
1.0
 70
               8
 71
               2
 72
              16
 73
              13
 74
               0
 42
0.000001
 43
0.000001
 40
0.0
 40
0.0
 40
0.0
 40
1.0
 40
2.0
 40
3.0
 40
4.0
 40
5.0
 40
5.0
 40
6.0
 40
7.0
 40
8.0
 40
9.0
 40
10.0
 40
10.0
 40
10.0
 10
1145.4210613287673
 20
-1606.2011789295059
 30
0.0
 10
1145.4203429349277
 20
-1606.4385859351021
 30
0.0
 10
1145.4710556242953
 20
-1606.8013121125462
 30
0.0
 10
1145.5677801913262
 20
-1607.2195045379822
 30
0.0
 10
1145.8191689916548
 20
-1607.6699771125714
 30
0.0
 10
1146.0968762655766
 20
-1607.9476403933463
 30
0.0
 10
1146.249488453514
 20
-1608.0364919399694
 30
0.0
 10
1146.3577045447341
 20
-1608.099202482394
 30
0.0
 10
1146.675303319741
 20
-1608.2108379557733
 30
0.0
 10
1147.1165705364792
 20
-1608.2349687557451
 30
0.0
 10
1147.5910474896045
 20
-1608.1446046343347
 30
0.0
 10
1148.0445506088308
 20
-1607.9612150934793
 30
0.0
 10
1148.249488453514
 20
-1607.8425845737052
 30
0.0
  0
SPLINE
  5
176
100
AcDbEntity
  8
0
370
               0
390
0
  6
Continuous
 62
               1
100
AcDbSpline
210
0.0
220
0.0
230
1.0
 70
              12
 71
               2
 72
               6
 73
               3
 74
               0
 42
0.000001
 43
0.000001
 40
0.0
 40
0.0
 40
0.0
 40
1.0
 40
1.0
 40
1.0
 10
1170.4817274299521
 20
-1240.6641302903406
 30
-0.0000000000054571
 41
1.0
 10
1170.8061947733604
 20
-1241.2330080946756
 30
-0.0000000000054574
 41
0.9735790276092444
 10
1170.8061947733609
 20
-1242.0767233882848
 30
-0.0000000000054577
 41
1.0
  0
SPLINE
  5
177
100
AcDbEntity
  8
0
370
               0
390
0
 62
               1
100
AcDbSpline
210
0.0
220
0.0
230
1.0
 70
               8
 71
               2
 72
              14
 73
              11
 74
               0
 42
0.000001
 43
0.000001
 40
0.0
 40
0.0
 40
0.0
 40
1.0
 40
2.0
 40
3.0
 40
4.0
 40
5.0
 40
6.0
 40
7.0
 40
8.0
 40
9.0
 40
9.0
 40
9.0
 10
1172.2204083357324
 20
-1242.8911148158695
 30
0.0
 10
1172.2210461219825
 20
-1242.6610185569464
 30
0.0
 10
1172.1589147178915
 20
-1242.1382117725425
 30
0.0
 10
1172.0196758468719
 20
-1241.7238693726072
 30
0.0
 10
1171.8419761400046
 20
-1241.35259356194
 30
0.0
 10
1171.4837163960619
 20
-1240.962733962167
 30
0.0
 10
1171.0243554570857
 20
-1240.7224114186733
 30
0.0
 10
1170.4992321845534
 20
-1240.6453960440326
 30
0.0
 10
1169.945858629103
 20
-1240.7206561232333
 30
0.0
 10
1169.4666433150155
 20
-1240.895396024282
 30
0.0
 10
1169.2684767235869
 20
-1240.998532294559
 30
0.0
  0
SPLINE
  5
178
100
AcDbEntity
  8
0
370
               0
390
0
  6
Continuous
 62
               1
100
AcDbSpline
210
0.0
220
0.0
230
1.0
 70
               4
 71
               2
 72
               6
 73
               3
 74
               0
 42
0.000001
 43
0.000001
 40
0.0
 40
0.0
 40
0.0
 40
1.0
 40
1.0
 40
1.0
 10
904.60957770377001
 20
-1087.5585419044455
 30
-0.0000000000054567
 41
1.0
 10
904.93404504717807
 20
-1088.1274197087803
 30
-0.0000000000054568
 41
0.9735790276092379
 10
904.9340450471783
 20
-1088.9711350023895
 30
-0.000000000005457
 41
1.0
  0
SPLINE
  5
179
100
AcDbEntity
  8
0
370
               0
390
0
 62
               1
100
AcDbSpline
210
0.0
220
0.0
230
1.0
 70
               8
 71
               2
 72
              14
 73
              11
 74
               0
 42
0.000001
 43
0.000001
 40
0.0
 40
0.0
 40
0.0
 40
1.0
 40
2.0
 40
3.0
 40
4.0
 40
5.0
 40
6.0
 40
7.0
 40
8.0
 40
9.0
 40
9.0
 40
9.0
 10
906.34825860955164
 20
-1089.7855264299742
 30
0.0
 10
906.34889639580149
 20
-1089.5554301710513
 30
0.0
 10
906.28676499171104
 20
-1089.0326233866472
 30
0.0
 10
906.1475261206914
 20
-1088.6182809867123
 30
0.0
 10
905.96982641382408
 20
-1088.2470051760447
 30
0.0
 10
905.61156666988143
 20
-1087.8571455762722
 30
0.0
 10
905.15220573090471
 20
-1087.616823032778
 30
0.0
 10
904.62708245837291
 20
-1087.5398076581373
 30
0.0
 10
904.07370890292225
 20
-1087.6150677373382
 30
0.0
 10
903.59449358883523
 20
-1087.7898076383867
 30
0.0
 10
903.39632699740662
 20
-1087.8929439086637
 30
0.0
  0
SPLINE
  5
17A
100
AcDbEntity
  8
0
370
               0
390
0
  6
Continuous
 62
               1
100
AcDbSpline
210
0.0
220
0.0
230
1.0
 70
              12
 71
               2
 72
               6
 73
               3
 74
               0
 42
0.000001
 43
0.000001
 40
0.0
 40
0.0
 40
0.0
 40
1.0
 40
1.0
 40
1.0
 10
1170.4817274299521
 20
-1183.4358315513628
 30
-0.0000000000054569
 41
1.0
 10
1170.8061947733599
 20
-1184.0047093556977
 30
-0.0000000000054572
 41
0.9735790276092582
 10
1170.8061947733604
 20
-1184.8484246493072
 30
-0.0000000000054575
 41
1.0
  0
SPLINE
  5
17B
100
AcDbEntity
  8
0
370
               0
390
0
 62
               1
100
AcDbSpline
210
0.0
220
0.0
230
1.0
 70
               8
 71
               2
 72
              14
 73
              11
 74
               0
 42
0.000001
 43
0.000001
 40
0.0
 40
0.0
 40
0.0
 40
1.0
 40
2.0
 40
3.0
 40
4.0
 40
5.0
 40
6.0
 40
7.0
 40
8.0
 40
9.0
 40
9.0
 40
9.0
 10
1172.2204083357319
 20
-1185.6628160768907
 30
0.0
 10
1172.221046121982
 20
-1185.4327198179676
 30
0.0
 10
1172.158914717892
 20
-1184.9099130335637
 30
0.0
 10
1172.0196758468715
 20
-1184.4955706336286
 30
0.0
 10
1171.8419761400046
 20
-1184.124294822961
 30
0.0
 10
1171.4837163960619
 20
-1183.7344352231885
 30
0.0
 10
1171.0243554570852
 20
-1183.4941126796944
 30
0.0
 10
1170.4992321845534
 20
-1183.4170973050541
 30
0.0
 10
1169.945858629103
 20
-1183.4923573842543
 30
0.0
 10
1169.4666433150155
 20
-1183.6670972853035
 30
0.0
 10
1169.2684767235869
 20
-1183.7702335555803
 30
0.0
  0
SPLINE
  5
17C
100
AcDbEntity
  8
0
370
               0
390
0
  6
Continuous
 62
               1
100
AcDbSpline
210
0.0
220
0.0
230
1.0
 70
               4
 71
               2
 72
               6
 73
               3
 74
               0
 42
0.000001
 43
0.000001
 40
0.0
 40
0.0
 40
0.0
 40
1.0
 40
1.0
 40
1.0
 10
904.60957770377092
 20
-1030.3302431654665
 30
-0.0000000000054568
 41
1.0
 10
904.93404504717921
 20
-1030.899120969802
 30
-0.000000000005457
 41
0.973579027609265
 10
904.93404504717921
 20
-1031.7428362634114
 30
-0.0000000000054573
 41
1.0
  0
SPLINE
  5
17D
100
AcDbEntity
  8
0
370
               0
390
0
 62
               1
100
AcDbSpline
210
0.0
220
0.0
230
1.0
 70
               8
 71
               2
 72
              14
 73
              11
 74
               0
 42
0.000001
 43
0.000001
 40
0.0
 40
0.0
 40
0.0
 40
1.0
 40
2.0
 40
3.0
 40
4.0
 40
5.0
 40
6.0
 40
7.0
 40
8.0
 40
9.0
 40
9.0
 40
9.0
 10
906.3482586095505
 20
-1032.557227690997
 30
0.0
 10
906.34889639580081
 20
-1032.3271314320741
 30
0.0
 10
906.28676499171058
 20
-1031.80432464767
 30
0.0
 10
906.14752612069003
 20
-1031.3899822477351
 30
0.0
 10
905.9698264138234
 20
-1031.0187064370675
 30
0.0
 10
905.61156666988052
 20
-1030.6288468372948
 30
0.0
 10
905.15220573090403
 20
-1030.3885242938009
 30
0.0
 10
904.627082458372
 20
-1030.3115089191606
 30
0.0
 10
904.07370890292157
 20
-1030.3867689983608
 30
0.0
 10
903.5944935888341
 20
-1030.5615088994098
 30
0.0
 10
903.39632699740571
 20
-1030.6646451696868
 30
0.0
  0
SPLINE
  5
17E
100
AcDbEntity
  8
0
370
               0
390
0
 62
               1
100
AcDbSpline
210
0.0
220
0.0
230
1.0
 70
               8
 71
               2
 72
              19
 73
              16
 74
               0
 42
0.000001
 43
0.000001
 40
0.0
 40
0.0
 40
0.0
 40
1.0
 40
2.0
 40
3.0
 40
4.0
 40
5.0
 40
6.0
 40
7.0
 40
8.0
 40
8.0
 40
9.0
 40
10.0
 40
11.0
 40
12.0
 40
13.0
 40
13.0
 40
13.0
 10
1043.9512382284729
 20
-1517.6140212988776
 30
0.0
 10
1044.9390694029294
 20
-1517.058367044084
 30
0.0
 10
1046.2749501493158
 20
-1515.7895771102103
 30
0.0
 10
1047.0499092534101
 20
-1514.6379628519931
 30
0.0
 10
1047.4648321755185
 20
-1513.3784539483497
 30
0.0
 10
1047.4648321755189
 20
-1512.0768915183899
 30
0.0
 10
1047.049909253411
 20
-1510.8173826147465
 30
0.0
 10
1046.2749501493172
 20
-1509.665768356529
 30
0.0
 10
1044.9390694029316
 20
-1508.3969784226556
 30
0.0
 10
1043.9512382284752
 20
-1507.8413241678618
 30
0.0
 10
1042.8239345281977
 20
-1507.2037351769552
 30
0.0
 10
1039.6691018282499
 20
-1506.1428687262814
 30
0.0
 10
1035.4640100383058
 20
-1505.702253369659
 30
0.0
 10
1031.2577085428175
 20
-1506.137928427702
 30
0.0
 10
1028.1079791802754
 20
-1507.2037351769545
 30
0.0
 10
1026.9806754799979
 20
-1507.8413241678609
 30
0.0
  0
SPLINE
  5
17F
100
AcDbEntity
  8
0
370
               0
390
0
  6
Continuous
 62
               1
100
AcDbSpline
210
0.0
220
0.0
230
1.0
 70
              12
 71
               2
 72
               6
 73
               3
 74
               0
 42
0.000001
 43
0.000001
 40
0.0
 40
0.0
 40
0.0
 40
1.0
 40
1.0
 40
1.0
 10
1044.3387779598988
 20
-1508.0661468508874
 30
-0.0000000000036399
 41
1.0
 10
1053.1096397908486
 20
-1513.1560178730726
 30
-0.0000000000036445
 41
0.7084675492138136
 10
1044.3047916190699
 20
-1518.2263927181937
 30
-0.0000000000036427
 41
1.0
  0
SPLINE
  5
180
100
AcDbEntity
  8
0
370
               0
390
0
 62
               1
100
AcDbSpline
210
0.0
220
0.0
230
1.0
 70
               8
 71
               2
 72
              15
 73
              12
 74
               0
 42
0.000001
 43
0.000001
 40
0.0
 40
0.0
 40
0.0
 40
1.0
 40
2.0
 40
3.0
 40
4.0
 40
5.0
 40
6.0
 40
7.0
 40
8.0
 40
9.0
 40
10.0
 40
10.0
 40
10.0
 10
1030.8697627765227
 20
-1510.4896741561411
 30
0.0
 10
1030.532012117224
 20
-1510.6824924722973
 30
0.0
 10
1029.8316856380056
 20
-1511.2253979166921
 30
0.0
 10
1029.3826441142633
 20
-1511.8013547311784
 30
0.0
 10
1029.1600537175782
 20
-1512.2039353311275
 30
0.0
 10
1029.0160125614179
 20
-1512.6252269399727
 30
0.0
 10
1028.928019009637
 20
-1513.2783078212155
 30
0.0
 10
1029.0973833563235
 20
-1513.9150532269086
 30
0.0
 10
1029.2905572446539
 20
-1514.323111802689
 30
0.0
 10
1029.7000975775404
 20
-1514.9093825140953
 30
0.0
 10
1030.3582119901657
 20
-1515.4695162913958
 30
0.0
 10
1030.6812615358599
 20
-1515.6700212148273
 30
0.0
  0
SPLINE
  5
181
100
AcDbEntity
  8
0
370
               0
390
0
  6
Continuous
 62
               1
100
AcDbSpline
210
0.0
220
0.0
230
1.0
 70
               4
 71
               2
 72
               8
 73
               5
 74
               0
 42
0.000001
 43
0.000001
 40
0.0
 40
0.0
 40
0.0
 40
0.5
 40
0.5
 40
1.0
 40
1.0
 40
1.0
 10
1040.4157043225423
 20
-1515.5780427299151
 30
-0.0000000000036392
 41
1.0
 10
1035.4659568542372
 20
-1518.4284127264623
 30
-0.0000000000036392
 41
0.7071067811865476
 10
1030.5162093859303
 20
-1515.5780427299162
 30
-0.000000000003638
 41
1.0
 10
1025.5664619176239
 20
-1512.7276727333706
 30
-0.0000000000036368
 41
0.7071067811865476
 10
1030.5162093859285
 20
-1509.8773027368236
 30
-0.0000000000036368
 41
1.0
  0
SPLINE
  5
182
100
AcDbEntity
  8
0
370
               0
390
0
 62
               1
100
AcDbSpline
210
0.0
220
0.0
230
1.0
 70
               8
 71
               2
 72
              18
 73
              15
 74
               0
 42
0.000001
 43
0.000001
 40
0.0
 40
0.0
 40
0.0
 40
1.0
 40
2.0
 40
3.0
 40
4.0
 40
5.0
 40
6.0
 40
7.0
 40
7.0
 40
8.0
 40
9.0
 40
10.0
 40
11.0
 40
12.0
 40
12.0
 40
12.0
 10
1040.2506521726118
 20
-1515.6700212148266
 30
0.0
 10
1040.6655820324099
 20
-1515.4141226226805
 30
0.0
 10
1041.474213884715
 20
-1514.664164652052
 30
0.0
 10
1041.8632788794703
 20
-1513.8544353716361
 30
0.0
 10
1042.0332526459492
 20
-1513.0086898405386
 30
0.0
 10
1041.771155277997
 20
-1512.1860129727038
 30
0.0
 10
1041.2880502368248
 20
-1511.3932917350523
 30
0.0
 10
1040.4077868963573
 20
-1510.6758557015366
 30
0.0
 10
1039.9648532276442
 20
-1510.4348059060071
 30
0.0
 10
1039.1013755909908
 20
-1509.9711448307592
 30
0.0
 10
1037.2672546633057
 20
-1509.499929254403
 30
0.0
 10
1035.397670776083
 20
-1509.3527750767596
 30
0.0
 10
1033.5334661754891
 20
-1509.5209198581924
 30
0.0
 10
1031.7158241553925
 20
-1510.0131584824096
 30
0.0
 10
1030.8697627765223
 20
-1510.4896741561411
 30
0.0
  0
SPLINE
  5
183
100
AcDbEntity
  8
0
370
               0
390
0
  6
Continuous
 62
               1
100
AcDbSpline
210
0.0
220
0.0
230
1.0
 70
               4
 71
               2
 72
               8
 73
               5
 74
               0
 42
0.000001
 43
0.000001
 40
0.0
 40
0.0
 40
0.0
 40
0.5
 40
0.5
 40
1.0
 40
1.0
 40
1.0
 10
1030.5162093859285
 20
-1509.8773027368236
 30
-0.0000000000036368
 41
1.0
 10
1035.4659568542334
 20
-1507.0269327402766
 30
-0.0000000000036367
 41
0.7071067811865476
 10
1040.41570432254
 20
-1509.8773027368225
 30
-0.0000000000036379
 41
1.0
 10
1045.3654517908471
 20
-1512.7276727333683
 30
-0.0000000000036391
 41
0.7071067811865476
 10
1040.4157043225423
 20
-1515.5780427299151
 30
-0.0000000000036392
 41
1.0
  0
SPLINE
  5
184
100
AcDbEntity
  8
0
370
               0
390
0
 62
               1
100
AcDbSpline
210
0.0
220
0.0
230
1.0
 70
               8
 71
               2
 72
              22
 73
              19
 74
               0
 42
0.000001
 43
0.000001
 40
0.0
 40
0.0
 40
0.0
 40
1.0
 40
2.0
 40
3.0
 40
4.0
 40
5.0
 40
6.0
 40
6.0
 40
7.0
 40
8.0
 40
9.0
 40
10.0
 40
11.0
 40
11.0
 40
12.0
 40
13.0
 40
14.0
 40
15.0
 40
15.0
 40
15.0
 10
1026.9806754799979
 20
-1507.8413241678609
 30
0.0
 10
1026.2891744790327
 20
-1508.2352206188627
 30
0.0
 10
1024.8980718710786
 20
-1509.3507266097661
 30
0.0
 10
1024.0696829211761
 20
-1510.524488067425
 30
0.0
 10
1023.6946102824404
 20
-1511.3229729467157
 30
0.0
 10
1023.3868494789622
 20
-1512.5462997414825
 30
0.0
 10
1023.6138624053287
 20
-1513.9623195372137
 30
0.0
 10
1023.874846938766
 20
-1514.5162004400904
 30
0.0
 10
1024.1590384738242
 20
-1515.1145056215141
 30
0.0
 10
1025.2194639753666
 20
-1516.4128345943877
 30
0.0
 10
1026.9896266719384
 20
-1517.6864930637419
 30
0.0
 10
1029.2158892287739
 20
-1518.6808401376545
 30
0.0
 10
1031.391697150897
 20
-1519.2543961580177
 30
0.0
 10
1032.3601283130033
 20
-1519.4025490055988
 30
0.0
 10
1034.7584726586601
 20
-1519.7670232894684
 30
0.0
 10
1038.5624385621391
 20
-1519.4549696938057
 30
0.0
 10
1041.1831384541465
 20
-1518.8585115722212
 30
0.0
 10
1043.1923421948891
 20
-1518.0470997571674
 30
0.0
 10
1043.9512382284729
 20
-1517.6140212988776
 30
0.0
  0
SPLINE
  5
185
100
AcDbEntity
  8
0
370
               0
390
0
  6
Continuous
 62
               1
100
AcDbSpline
210
0.0
220
0.0
230
1.0
 70
               4
 71
               2
 72
               8
 73
               5
 74
               0
 42
0.000001
 43
0.000001
 40
0.0
 40
0.0
 40
0.0
 40
0.5
 40
0.5
 40
1.0
 40
1.0
 40
1.0
 10
1044.3047916190699
 20
-1518.2263927181937
 30
-0.0000000000036408
 41
1.0
 10
1035.4829664861386
 20
-1523.3065439450413
 30
-0.0000000000036402
 41
0.7077874934833087
 10
1026.6441644864794
 20
-1518.2361878955819
 30
-0.0000000000036374
 41
1.0
 10
1017.8053624868203
 20
-1513.1658318461227
 30
-0.0000000000036345
 41
0.7077874934833087
 10
1026.5931357485665
 20
-1508.0661468508904
 30
-0.0000000000036351
 41
1.0
  0
ENDBLK
  5
186
100
AcDbEntity
  8
0
390
0
100
AcDbBlockEnd
  0
BLOCK
  5
187
100
AcDbEntity
  8
0
390
0
100
AcDbBlockBegin
  2
グループ-5
 70
               0
 10
0.0
 20
0.0
 30
0.0
  3
グループ-5
  1

  0
ARC
  5
188
100
AcDbEntity
  8
0
370
               0
390
0
 62
               1
100
AcDbCircle
 10
-35.455509620235034
 20
1404.7903537087941
 30
0.0
 40
6.5000000000002274
100
AcDbArc
 50
270.0
 51
90.0
  0
ARC
  5
189
100
AcDbEntity
  8
0
370
               0
390
0
 62
               1
100
AcDbCircle
 10
-35.455509620235034
 20
1404.7903537087941
 30
0.0
 40
6.5
100
AcDbArc
 50
90.0
 51
270.0
  0
ARC
  5
18A
100
AcDbEntity
  8
0
370
               0
390
0
 62
               1
100
AcDbCircle
 10
-315.45550962023503
 20
1404.7903537087941
 30
0.0
 40
6.5000000000002274
100
AcDbArc
 50
270.0
 51
90.0
  0
ARC
  5
18B
100
AcDbEntity
  8
0
370
               0
390
0
 62
               1
100
AcDbCircle
 10
-315.45550962023503
 20
1404.7903537087941
 30
0.0
 40
6.5
100
AcDbArc
 50
90.0
 51
270.0
  0
LINE
  5
18C
100
AcDbEntity
  8
0
370
               0
390
0
 62
               1
100
AcDbLine
 10
14.044490379764966
 20
1374.7903537087941
 30
0.0
 11
11.044490379764966
 21
1374.7903537087941
 31
0.0
  0
LINE
  5
18D
100
AcDbEntity
  8
0
370
               0
390
0
 62
               1
100
AcDbLine
 10
-364.95550962023503
 20
1434.7903537087941
 30
0.0
 11
-361.95550962023503
 21
1434.7903537087941
 31
0.0
  0
LINE
  5
18E
100
AcDbEntity
  8
0
370
               0
390
0
 62
               1
100
AcDbLine
 10
11.044490379764966
 20
1434.7903537087941
 30
0.0
 11
14.044490379764966
 21
1434.7903537087941
 31
0.0
  0
LINE
  5
18F
100
AcDbEntity
  8
0
370
               0
390
0
 62
               1
100
AcDbLine
 10
-361.95550962023503
 20
1374.7903537087941
 30
0.0
 11
-364.95550962023503
 21
1374.7903537087941
 31
0.0
  0
LINE
  5
190
100
AcDbEntity
  8
0
370
               0
390
0
 62
               1
100
AcDbLine
 10
-360.95550962023503
 20
1434.7903537087941
 30
0.0
 11
-360.95550962023503
 21
1431.7903537087941
 31
0.0
  0
LINE
  5
191
100
AcDbEntity
  8
0
370
               0
390
0
 62
               1
100
AcDbLine
 10
10.044490379764966
 20
1434.7903537087941
 30
0.0
 11
10.044490379764966
 21
1431.7903537087941
 31
0.0
  0
LINE
  5
192
100
AcDbEntity
  8
0
370
               0
390
0
 62
               1
100
AcDbLine
 10
-360.95550962023503
 20
1434.7903537087941
 30
0.0
 11
10.044490379764966
 21
1434.7903537087941
 31
0.0
  0
LINE
  5
193
100
AcDbEntity
  8
0
370
               0
390
0
 62
               1
100
AcDbLine
 10
-360.95550962023503
 20
1431.7903537087941
 30
0.0
 11
10.044490379764966
 21
1431.7903537087941
 31
0.0
  0
LINE
  5
194
100
AcDbEntity
  8
0
370
               0
390
0
 62
               1
100
AcDbLine
 10
10.044490379764966
 20
1374.7903537087941
 30
0.0
 11
10.044490379764966
 21
1377.7903537087941
 31
0.0
  0
LINE
  5
195
100
AcDbEntity
  8
0
370
               0
390
0
 62
               1
100
AcDbLine
 10
-360.95550962023503
 20
1374.7903537087941
 30
0.0
 11
-360.95550962023503
 21
1377.7903537087941
 31
0.0
  0
LINE
  5
196
100
AcDbEntity
  8
0
370
               0
390
0
 62
               1
100
AcDbLine
 10
-360.95550962023503
 20
1374.7903537087941
 30
0.0
 11
10.044490379764966
 21
1374.7903537087941
 31
0.0
  0
LINE
  5
197
100
AcDbEntity
  8
0
370
               0
390
0
 62
               1
100
AcDbLine
 10
-360.95550962023503
 20
1377.7903537087941
 30
0.0
 11
10.044490379764966
 21
1377.7903537087941
 31
0.0
  0
ARC
  5
198
100
AcDbEntity
  8
0
370
               0
390
0
 62
               1
100
AcDbCircle
 10
-175.45550962023503
 20
1404.7903537087941
 30
0.0
 40
12.0
100
AcDbArc
 50
0.0
 51
180.0
  0
POLYLINE
  5
199
100
AcDbEntity
  8
0
370
               0
390
0
 62
               1
100
AcDb3dPolyline
 66
               1
 10
0.0
 20
0.0
 30
0.0
 70
               8
  0
VERTEX
  5
19A
100
AcDbEntity
  8
0
370
               0
390
0
 62
               1
100
AcDbVertex
100
AcDb3dPolylineVertex
 10
-162.95550962023503
 20
1404.7903537087941
 30
0.0
 70
              32
  0
VERTEX
  5
19B
100
AcDbEntity
  8
0
370
               0
390
0
 62
               1
100
AcDbVertex
100
AcDb3dPolylineVertex
 10
-163.01570053683258
 20
1406.0155679629136
 30
0.0
 70
              32
  0
VERTEX
  5
19C
100
AcDbEntity
  8
0
370
               0
390
0
 62
               1
100
AcDbVertex
100
AcDb3dPolylineVertex
 10
-163.19569361519461
 20
1407.2289827339955
 30
0.0
 70
              32
  0
VERTEX
  5
19D
100
AcDbEntity
  8
0
370
               0
390
0
 62
               1
100
AcDbVertex
100
AcDb3dPolylineVertex
 10
-163.49375542358246
 20
1408.4189121744748
 30
0.0
 70
              32
  0
VERTEX
  5
19E
100
AcDbEntity
  8
0
370
               0
390
0
 62
               1
100
AcDbVertex
100
AcDb3dPolylineVertex
 10
-163.90701546384389
 20
1409.5738966133576
 30
0.0
 70
              32
  0
VERTEX
  5
19F
100
AcDbEntity
  8
0
370
               0
390
0
 62
               1
100
AcDbVertex
100
AcDb3dPolylineVertex
 10
-164.43149381588057
 20
1410.682812919119
 30
0.0
 70
              32
  0
VERTEX
  5
1A0
100
AcDbEntity
  8
0
370
               0
390
0
 62
               1
100
AcDbVertex
100
AcDb3dPolylineVertex
 10
-165.06213946645323
 20
1411.734981621539
 30
0.0
 70
              32
  0
VERTEX
  5
1A1
100
AcDbEntity
  8
0
370
               0
390
0
 62
               1
100
AcDbVertex
100
AcDb3dPolylineVertex
 10
-165.79287895320078
 20
1412.7202697608395
 30
0.0
 70
              32
  0
VERTEX
  5
1A2
100
AcDbEntity
  8
0
370
               0
390
0
 62
               1
100
AcDbVertex
100
AcDb3dPolylineVertex
 10
-166.61667485540318
 20
1413.6291884736258
 30
0.0
 70
              32
  0
VERTEX
  5
1A3
100
AcDbEntity
  8
0
370
               0
390
0
 62
               1
100
AcDbVertex
100
AcDb3dPolylineVertex
 10
-167.52559356818949
 20
1414.4529843758282
 30
0.0
 70
              32
  0
VERTEX
  5
1A4
100
AcDbEntity
  8
0
370
               0
390
0
 62
               1
100
AcDbVertex
100
AcDb3dPolylineVertex
 10
-168.51088170748994
 20
1415.1837238625758
 30
0.0
 70
              32
  0
VERTEX
  5
1A5
100
AcDbEntity
  8
0
370
               0
390
0
 62
               1
100
AcDbVertex
100
AcDb3dPolylineVertex
 10
-169.56305040991003
 20
1415.8143695131484
 30
0.0
 70
              32
  0
VERTEX
  5
1A6
100
AcDbEntity
  8
0
370
               0
390
0
 62
               1
100
AcDbVertex
100
AcDb3dPolylineVertex
 10
-170.67196671567137
 20
1416.338847865185
 30
0.0
 70
              32
  0
VERTEX
  5
1A7
100
AcDbEntity
  8
0
370
               0
390
0
 62
               1
100
AcDbVertex
100
AcDb3dPolylineVertex
 10
-171.82695115455419
 20
1416.7521079054466
 30
0.0
 70
              32
  0
VERTEX
  5
1A8
100
AcDbEntity
  8
0
370
               0
390
0
 62
               1
100
AcDbVertex
100
AcDb3dPolylineVertex
 10
-173.0168805950334
 20
1417.0501697138343
 30
0.0
 70
              32
  0
VERTEX
  5
1A9
100
AcDbEntity
  8
0
370
               0
390
0
 62
               1
100
AcDbVertex
100
AcDb3dPolylineVertex
 10
-174.23029536611546
 20
1417.2301627921966
 30
0.0
 70
              32
  0
VERTEX
  5
1AA
100
AcDbEntity
  8
0
370
               0
390
0
 62
               1
100
AcDbVertex
100
AcDb3dPolylineVertex
 10
-175.45550962023503
 20
1417.2903537087941
 30
0.0
 70
              32
  0
VERTEX
  5
1AB
100
AcDbEntity
  8
0
370
               0
390
0
 62
               1
100
AcDbVertex
100
AcDb3dPolylineVertex
 10
-176.6807238743545
 20
1417.2301627921966
 30
0.0
 70
              32
  0
VERTEX
  5
1AC
100
AcDbEntity
  8
0
370
               0
390
0
 62
               1
100
AcDbVertex
100
AcDb3dPolylineVertex
 10
-177.89413864543667
 20
1417.0501697138343
 30
0.0
 70
              32
  0
VERTEX
  5
1AD
100
AcDbEntity
  8
0
370
               0
390
0
 62
               1
100
AcDbVertex
100
AcDb3dPolylineVertex
 10
-179.08406808591576
 20
1416.7521079054466
 30
0.0
 70
              32
  0
VERTEX
  5
1AE
100
AcDbEntity
  8
0
370
               0
390
0
 62
               1
100
AcDbVertex
100
AcDb3dPolylineVertex
 10
-180.23905252479869
 20
1416.338847865185
 30
0.0
 70
              32
  0
VERTEX
  5
1AF
100
AcDbEntity
  8
0
370
               0
390
0
 62
               1
100
AcDbVertex
100
AcDb3dPolylineVertex
 10
-181.34796883056003
 20
1415.8143695131484
 30
0.0
 70
              32
  0
VERTEX
  5
1B0
100
AcDbEntity
  8
0
370
               0
390
0
 62
               1
100
AcDbVertex
100
AcDb3dPolylineVertex
 10
-182.40013753298001
 20
1415.1837238625758
 30
0.0
 70
              32
  0
VERTEX
  5
1B1
100
AcDbEntity
  8
0
370
               0
390
0
 62
               1
100
AcDbVertex
100
AcDb3dPolylineVertex
 10
-183.38542567228058
 20
1414.4529843758282
 30
0.0
 70
              32
  0
VERTEX
  5
1B2
100
AcDbEntity
  8
0
370
               0
390
0
 62
               1
100
AcDbVertex
100
AcDb3dPolylineVertex
 10
-184.29434438506689
 20
1413.6291884736258
 30
0.0
 70
              32
  0
VERTEX
  5
1B3
100
AcDbEntity
  8
0
370
               0
390
0
 62
               1
100
AcDbVertex
100
AcDb3dPolylineVertex
 10
-185.11814028726928
 20
1412.7202697608395
 30
0.0
 70
              32
  0
VERTEX
  5
1B4
100
AcDbEntity
  8
0
370
               0
390
0
 62
               1
100
AcDbVertex
100
AcDb3dPolylineVertex
 10
-185.84887977401684
 20
1411.734981621539
 30
0.0
 70
              32
  0
VERTEX
  5
1B5
100
AcDbEntity
  8
0
370
               0
390
0
 62
               1
100
AcDbVertex
100
AcDb3dPolylineVertex
 10
-186.4795254245895
 20
1410.682812919119
 30
0.0
 70
              32
  0
VERTEX
  5
1B6
100
AcDbEntity
  8
0
370
               0
390
0
 62
               1
100
AcDbVertex
100
AcDb3dPolylineVertex
 10
-187.00400377662606
 20
1409.5738966133576
 30
0.0
 70
              32
  0
VERTEX
  5
1B7
100
AcDbEntity
  8
0
370
               0
390
0
 62
               1
100
AcDbVertex
100
AcDb3dPolylineVertex
 10
-187.41726381688761
 20
1408.4189121744748
 30
0.0
 70
              32
  0
VERTEX
  5
1B8
100
AcDbEntity
  8
0
370
               0
390
0
 62
               1
100
AcDbVertex
100
AcDb3dPolylineVertex
 10
-187.71532562527545
 20
1407.2289827339955
 30
0.0
 70
              32
  0
VERTEX
  5
1B9
100
AcDbEntity
  8
0
370
               0
390
0
 62
               1
100
AcDbVertex
100
AcDb3dPolylineVertex
 10
-187.89531870363749
 20
1406.0155679629136
 30
0.0
 70
              32
  0
VERTEX
  5
1BA
100
AcDbEntity
  8
0
370
               0
390
0
 62
               1
100
AcDbVertex
100
AcDb3dPolylineVertex
 10
-187.95550962023503
 20
1404.7903537087941
 30
0.0
 70
              32
  0
SEQEND
  5
1BB
100
AcDbEntity
  8
0
370
               0
390
0
 62
               1
  0
ARC
  5
1BC
100
AcDbEntity
  8
0
370
               0
390
0
 62
               1
100
AcDbCircle
 10
-175.45550962023503
 20
1404.7903537087941
 30
0.0
 40
6.5
100
AcDbArc
 50
180.0
 51
0.0
  0
POLYLINE
  5
1BD
100
AcDbEntity
  8
0
370
               0
390
0
 62
               1
100
AcDb3dPolyline
 66
               1
 10
0.0
 20
0.0
 30
0.0
 70
               8
  0
VERTEX
  5
1BE
100
AcDbEntity
  8
0
370
               0
390
0
 62
               1
100
AcDbVertex
100
AcDb3dPolylineVertex
 10
-182.45550962023503
 20
1404.7903537087941
 30
0.0
 70
              32
  0
VERTEX
  5
1BF
100
AcDbEntity
  8
0
370
               0
390
0
 62
               1
100
AcDbVertex
100
AcDb3dPolylineVertex
 10
-182.42180270694041
 20
1404.1042337264871
 30
0.0
 70
              32
  0
VERTEX
  5
1C0
100
AcDbEntity
  8
0
370
               0
390
0
 62
               1
100
AcDbVertex
100
AcDb3dPolylineVertex
 10
-182.32100658305762
 20
1403.424721454681
 30
0.0
 70
              32
  0
VERTEX
  5
1C1
100
AcDbEntity
  8
0
370
               0
390
0
 62
               1
100
AcDbVertex
100
AcDb3dPolylineVertex
 10
-182.15409197036047
 20
1402.7583609680128
 30
0.0
 70
              32
  0
VERTEX
  5
1C2
100
AcDbEntity
  8
0
370
               0
390
0
 62
               1
100
AcDbVertex
100
AcDb3dPolylineVertex
 10
-181.92266634781402
 20
1402.1115696822383
 30
0.0
 70
              32
  0
VERTEX
  5
1C3
100
AcDbEntity
  8
0
370
               0
390
0
 62
               1
100
AcDbVertex
100
AcDb3dPolylineVertex
 10
-181.62895847067352
 20
1401.4905765510121
 30
0.0
 70
              32
  0
VERTEX
  5
1C4
100
AcDbEntity
  8
0
370
               0
390
0
 62
               1
100
AcDbVertex
100
AcDb3dPolylineVertex
 10
-181.27579690635287
 20
1400.9013620776568
 30
0.0
 70
              32
  0
VERTEX
  5
1C5
100
AcDbEntity
  8
0
370
               0
390
0
 62
               1
100
AcDbVertex
100
AcDb3dPolylineVertex
 10
-180.86658279377423
 20
1400.3496007196486
 30
0.0
 70
              32
  0
VERTEX
  5
1C6
100
AcDbEntity
  8
0
370
               0
390
0
 62
               1
100
AcDbVertex
100
AcDb3dPolylineVertex
 10
-180.40525708854079
 20
1399.8406062404881
 30
0.0
 70
              32
  0
VERTEX
  5
1C7
100
AcDbEntity
  8
0
370
               0
390
0
 62
               1
100
AcDbVertex
100
AcDb3dPolylineVertex
 10
-179.89626260938053
 20
1399.3792805352548
 30
0.0
 70
              32
  0
VERTEX
  5
1C8
100
AcDbEntity
  8
0
370
               0
390
0
 62
               1
100
AcDbVertex
100
AcDb3dPolylineVertex
 10
-179.34450125137221
 20
1398.9700664226762
 30
0.0
 70
              32
  0
VERTEX
  5
1C9
100
AcDbEntity
  8
0
370
               0
390
0
 62
               1
100
AcDbVertex
100
AcDb3dPolylineVertex
 10
-178.75528677801697
 20
1398.6169048583556
 30
0.0
 70
              32
  0
VERTEX
  5
1CA
100
AcDbEntity
  8
0
370
               0
390
0
 62
               1
100
AcDbVertex
100
AcDb3dPolylineVertex
 10
-178.13429364679064
 20
1398.323196981215
 30
0.0
 70
              32
  0
VERTEX
  5
1CB
100
AcDbEntity
  8
0
370
               0
390
0
 62
               1
100
AcDbVertex
100
AcDb3dPolylineVertex
 10
-177.48750236101625
 20
1398.0917713586687
 30
0.0
 70
              32
  0
VERTEX
  5
1CC
100
AcDbEntity
  8
0
370
               0
390
0
 62
               1
100
AcDbVertex
100
AcDb3dPolylineVertex
 10
-176.82114187434797
 20
1397.9248567459713
 30
0.0
 70
              32
  0
VERTEX
  5
1CD
100
AcDbEntity
  8
0
370
               0
390
0
 62
               1
100
AcDbVertex
100
AcDb3dPolylineVertex
 10
-176.14162960254191
 20
1397.8240606220886
 30
0.0
 70
              32
  0
VERTEX
  5
1CE
100
AcDbEntity
  8
0
370
               0
390
0
 62
               1
100
AcDbVertex
100
AcDb3dPolylineVertex
 10
-175.45550962023503
 20
1397.7903537087941
 30
0.0
 70
              32
  0
VERTEX
  5
1CF
100
AcDbEntity
  8
0
370
               0
390
0
 62
               1
100
AcDbVertex
100
AcDb3dPolylineVertex
 10
-174.76938963792804
 20
1397.8240606220886
 30
0.0
 70
              32
  0
VERTEX
  5
1D0
100
AcDbEntity
  8
0
370
               0
390
0
 62
               1
100
AcDbVertex
100
AcDb3dPolylineVertex
 10
-174.0898773661221
 20
1397.9248567459713
 30
0.0
 70
              32
  0
VERTEX
  5
1D1
100
AcDbEntity
  8
0
370
               0
390
0
 62
               1
100
AcDbVertex
100
AcDb3dPolylineVertex
 10
-173.42351687945381
 20
1398.0917713586687
 30
0.0
 70
              32
  0
VERTEX
  5
1D2
100
AcDbEntity
  8
0
370
               0
390
0
 62
               1
100
AcDbVertex
100
AcDb3dPolylineVertex
 10
-172.77672559367943
 20
1398.323196981215
 30
0.0
 70
              32
  0
VERTEX
  5
1D3
100
AcDbEntity
  8
0
370
               0
390
0
 62
               1
100
AcDbVertex
100
AcDb3dPolylineVertex
 10
-172.15573246245299
 20
1398.6169048583556
 30
0.0
 70
              32
  0
VERTEX
  5
1D4
100
AcDbEntity
  8
0
370
               0
390
0
 62
               1
100
AcDbVertex
100
AcDb3dPolylineVertex
 10
-171.56651798909786
 20
1398.9700664226762
 30
0.0
 70
              32
  0
VERTEX
  5
1D5
100
AcDbEntity
  8
0
370
               0
390
0
 62
               1
100
AcDbVertex
100
AcDb3dPolylineVertex
 10
-171.01475663108954
 20
1399.3792805352548
 30
0.0
 70
              32
  0
VERTEX
  5
1D6
100
AcDbEntity
  8
0
370
               0
390
0
 62
               1
100
AcDbVertex
100
AcDb3dPolylineVertex
 10
-170.50576215192916
 20
1399.8406062404881
 30
0.0
 70
              32
  0
VERTEX
  5
1D7
100
AcDbEntity
  8
0
370
               0
390
0
 62
               1
100
AcDbVertex
100
AcDb3dPolylineVertex
 10
-170.04443644669584
 20
1400.3496007196486
 30
0.0
 70
              32
  0
VERTEX
  5
1D8
100
AcDbEntity
  8
0
370
               0
390
0
 62
               1
100
AcDbVertex
100
AcDb3dPolylineVertex
 10
-169.6352223341172
 20
1400.9013620776568
 30
0.0
 70
              32
  0
VERTEX
  5
1D9
100
AcDbEntity
  8
0
370
               0
390
0
 62
               1
100
AcDbVertex
100
AcDb3dPolylineVertex
 10
-169.28206076979654
 20
1401.4905765510121
 30
0.0
 70
              32
  0
VERTEX
  5
1DA
100
AcDbEntity
  8
0
370
               0
390
0
 62
               1
100
AcDbVertex
100
AcDb3dPolylineVertex
 10
-168.98835289265605
 20
1402.1115696822383
 30
0.0
 70
              32
  0
VERTEX
  5
1DB
100
AcDbEntity
  8
0
370
               0
390
0
 62
               1
100
AcDbVertex
100
AcDb3dPolylineVertex
 10
-168.7569272701096
 20
1402.7583609680128
 30
0.0
 70
              32
  0
VERTEX
  5
1DC
100
AcDbEntity
  8
0
370
               0
390
0
 62
               1
100
AcDbVertex
100
AcDb3dPolylineVertex
 10
-168.59001265741244
 20
1403.424721454681
 30
0.0
 70
              32
  0
VERTEX
  5
1DD
100
AcDbEntity
  8
0
370
               0
390
0
 62
               1
100
AcDbVertex
100
AcDb3dPolylineVertex
 10
-168.48921653352966
 20
1404.1042337264871
 30
0.0
 70
              32
  0
VERTEX
  5
1DE
100
AcDbEntity
  8
0
370
               0
390
0
 62
               1
100
AcDbVertex
100
AcDb3dPolylineVertex
 10
-168.45550962023503
 20
1404.7903537087941
 30
0.0
 70
              32
  0
SEQEND
  5
1DF
100
AcDbEntity
  8
0
370
               0
390
0
 62
               1
  0
ARC
  5
1E0
100
AcDbEntity
  8
0
370
               0
390
0
 62
               1
100
AcDbCircle
 10
-175.45550962023503
 20
1404.7903537087941
 30
0.0
 40
6.5
100
AcDbArc
 50
0.0
 51
180.0
  0
POLYLINE
  5
1E1
100
AcDbEntity
  8
0
370
               0
390
0
 62
               1
100
AcDb3dPolyline
 66
               1
 10
0.0
 20
0.0
 30
0.0
 70
               8
  0
VERTEX
  5
1E2
100
AcDbEntity
  8
0
370
               0
390
0
 62
               1
100
AcDbVertex
100
AcDb3dPolylineVertex
 10
-168.45550962023503
 20
1404.7903537087941
 30
0.0
 70
              32
  0
VERTEX
  5
1E3
100
AcDbEntity
  8
0
370
               0
390
0
 62
               1
100
AcDbVertex
100
AcDb3dPolylineVertex
 10
-168.48921653352966
 20
1405.4764736911009
 30
0.0
 70
              32
  0
VERTEX
  5
1E4
100
AcDbEntity
  8
0
370
               0
390
0
 62
               1
100
AcDbVertex
100
AcDb3dPolylineVertex
 10
-168.59001265741244
 20
1406.1559859629069
 30
0.0
 70
              32
  0
VERTEX
  5
1E5
100
AcDbEntity
  8
0
370
               0
390
0
 62
               1
100
AcDbVertex
100
AcDb3dPolylineVertex
 10
-168.7569272701096
 20
1406.8223464495752
 30
0.0
 70
              32
  0
VERTEX
  5
1E6
100
AcDbEntity
  8
0
370
               0
390
0
 62
               1
100
AcDbVertex
100
AcDb3dPolylineVertex
 10
-168.98835289265605
 20
1407.4691377353497
 30
0.0
 70
              32
  0
VERTEX
  5
1E7
100
AcDbEntity
  8
0
370
               0
390
0
 62
               1
100
AcDbVertex
100
AcDb3dPolylineVertex
 10
-169.28206076979654
 20
1408.0901308665759
 30
0.0
 70
              32
  0
VERTEX
  5
1E8
100
AcDbEntity
  8
0
370
               0
390
0
 62
               1
100
AcDbVertex
100
AcDb3dPolylineVertex
 10
-169.6352223341172
 20
1408.6793453399312
 30
0.0
 70
              32
  0
VERTEX
  5
1E9
100
AcDbEntity
  8
0
370
               0
390
0
 62
               1
100
AcDbVertex
100
AcDb3dPolylineVertex
 10
-170.04443644669584
 20
1409.2311066979396
 30
0.0
 70
              32
  0
VERTEX
  5
1EA
100
AcDbEntity
  8
0
370
               0
390
0
 62
               1
100
AcDbVertex
100
AcDb3dPolylineVertex
 10
-170.50576215192916
 20
1409.7401011770999
 30
0.0
 70
              32
  0
VERTEX
  5
1EB
100
AcDbEntity
  8
0
370
               0
390
0
 62
               1
100
AcDbVertex
100
AcDb3dPolylineVertex
 10
-171.01475663108954
 20
1410.2014268823332
 30
0.0
 70
              32
  0
VERTEX
  5
1EC
100
AcDbEntity
  8
0
370
               0
390
0
 62
               1
100
AcDbVertex
100
AcDb3dPolylineVertex
 10
-171.56651798909786
 20
1410.6106409949118
 30
0.0
 70
              32
  0
VERTEX
  5
1ED
100
AcDbEntity
  8
0
370
               0
390
0
 62
               1
100
AcDbVertex
100
AcDb3dPolylineVertex
 10
-172.15573246245299
 20
1410.9638025592326
 30
0.0
 70
              32
  0
VERTEX
  5
1EE
100
AcDbEntity
  8
0
370
               0
390
0
 62
               1
100
AcDbVertex
100
AcDb3dPolylineVertex
 10
-172.77672559367943
 20
1411.257510436373
 30
0.0
 70
              32
  0
VERTEX
  5
1EF
100
AcDbEntity
  8
0
370
               0
390
0
 62
               1
100
AcDbVertex
100
AcDb3dPolylineVertex
 10
-173.42351687945381
 20
1411.4889360589195
 30
0.0
 70
              32
  0
VERTEX
  5
1F0
100
AcDbEntity
  8
0
370
               0
390
0
 62
               1
100
AcDbVertex
100
AcDb3dPolylineVertex
 10
-174.0898773661221
 20
1411.6558506716165
 30
0.0
 70
              32
  0
VERTEX
  5
1F1
100
AcDbEntity
  8
0
370
               0
390
0
 62
               1
100
AcDbVertex
100
AcDb3dPolylineVertex
 10
-174.76938963792804
 20
1411.7566467954994
 30
0.0
 70
              32
  0
VERTEX
  5
1F2
100
AcDbEntity
  8
0
370
               0
390
0
 62
               1
100
AcDbVertex
100
AcDb3dPolylineVertex
 10
-175.45550962023503
 20
1411.7903537087941
 30
0.0
 70
              32
  0
VERTEX
  5
1F3
100
AcDbEntity
  8
0
370
               0
390
0
 62
               1
100
AcDbVertex
100
AcDb3dPolylineVertex
 10
-176.14162960254191
 20
1411.7566467954994
 30
0.0
 70
              32
  0
VERTEX
  5
1F4
100
AcDbEntity
  8
0
370
               0
390
0
 62
               1
100
AcDbVertex
100
AcDb3dPolylineVertex
 10
-176.82114187434797
 20
1411.6558506716165
 30
0.0
 70
              32
  0
VERTEX
  5
1F5
100
AcDbEntity
  8
0
370
               0
390
0
 62
               1
100
AcDbVertex
100
AcDb3dPolylineVertex
 10
-177.48750236101625
 20
1411.4889360589195
 30
0.0
 70
              32
  0
VERTEX
  5
1F6
100
AcDbEntity
  8
0
370
               0
390
0
 62
               1
100
AcDbVertex
100
AcDb3dPolylineVertex
 10
-178.13429364679064
 20
1411.257510436373
 30
0.0
 70
              32
  0
VERTEX
  5
1F7
100
AcDbEntity
  8
0
370
               0
390
0
 62
               1
100
AcDbVertex
100
AcDb3dPolylineVertex
 10
-178.75528677801697
 20
1410.9638025592326
 30
0.0
 70
              32
  0
VERTEX
  5
1F8
100
AcDbEntity
  8
0
370
               0
390
0
 62
               1
100
AcDbVertex
100
AcDb3dPolylineVertex
 10
-179.34450125137221
 20
1410.6106409949118
 30
0.0
 70
              32
  0
VERTEX
  5
1F9
100
AcDbEntity
  8
0
370
               0
390
0
 62
               1
100
AcDbVertex
100
AcDb3dPolylineVertex
 10
-179.89626260938053
 20
1410.2014268823332
 30
0.0
 70
              32
  0
VERTEX
  5
1FA
100
AcDbEntity
  8
0
370
               0
390
0
 62
               1
100
AcDbVertex
100
AcDb3dPolylineVertex
 10
-180.40525708854079
 20
1409.7401011770999
 30
0.0
 70
              32
  0
VERTEX
  5
1FB
100
AcDbEntity
  8
0
370
               0
390
0
 62
               1
100
AcDbVertex
100
AcDb3dPolylineVertex
 10
-180.86658279377423
 20
1409.2311066979396
 30
0.0
 70
              32
  0
VERTEX
  5
1FC
100
AcDbEntity
  8
0
370
               0
390
0
 62
               1
100
AcDbVertex
100
AcDb3dPolylineVertex
 10
-181.27579690635287
 20
1408.6793453399312
 30
0.0
 70
              32
  0
VERTEX
  5
1FD
100
AcDbEntity
  8
0
370
               0
390
0
 62
               1
100
AcDbVertex
100
AcDb3dPolylineVertex
 10
-181.62895847067352
 20
1408.0901308665759
 30
0.0
 70
              32
  0
VERTEX
  5
1FE
100
AcDbEntity
  8
0
370
               0
390
0
 62
               1
100
AcDbVertex
100
AcDb3dPolylineVertex
 10
-181.92266634781402
 20
1407.4691377353497
 30
0.0
 70
              32
  0
VERTEX
  5
1FF
100
AcDbEntity
  8
0
370
               0
390
0
 62
               1
100
AcDbVertex
100
AcDb3dPolylineVertex
 10
-182.15409197036047
 20
1406.8223464495752
 30
0.0
 70
              32
  0
VERTEX
  5
200
100
AcDbEntity
  8
0
370
               0
390
0
 62
               1
100
AcDbVertex
100
AcDb3dPolylineVertex
 10
-182.32100658305762
 20
1406.1559859629069
 30
0.0
 70
              32
  0
VERTEX
  5
201
100
AcDbEntity
  8
0
370
               0
390
0
 62
               1
100
AcDbVertex
100
AcDb3dPolylineVertex
 10
-182.42180270694041
 20
1405.4764736911009
 30
0.0
 70
              32
  0
VERTEX
  5
202
100
AcDbEntity
  8
0
370
               0
390
0
 62
               1
100
AcDbVertex
100
AcDb3dPolylineVertex
 10
-182.45550962023503
 20
1404.7903537087941
 30
0.0
 70
              32
  0
SEQEND
  5
203
100
AcDbEntity
  8
0
370
               0
390
0
 62
               1
  0
ARC
  5
204
100
AcDbEntity
  8
0
370
               0
390
0
 62
               1
100
AcDbCircle
 10
-175.45550962023503
 20
1404.7903537087941
 30
0.0
 40
12.0
100
AcDbArc
 50
180.0
 51
0.0
  0
POLYLINE
  5
205
100
AcDbEntity
  8
0
370
               0
390
0
 62
               1
100
AcDb3dPolyline
 66
               1
 10
0.0
 20
0.0
 30
0.0
 70
               8
  0
VERTEX
  5
206
100
AcDbEntity
  8
0
370
               0
390
0
 62
               1
100
AcDbVertex
100
AcDb3dPolylineVertex
 10
-187.95550962023503
 20
1404.7903537087941
 30
0.0
 70
              32
  0
VERTEX
  5
207
100
AcDbEntity
  8
0
370
               0
390
0
 62
               1
100
AcDbVertex
100
AcDb3dPolylineVertex
 10
-187.89531870363749
 20
1403.5651394546744
 30
0.0
 70
              32
  0
VERTEX
  5
208
100
AcDbEntity
  8
0
370
               0
390
0
 62
               1
100
AcDbVertex
100
AcDb3dPolylineVertex
 10
-187.71532562527545
 20
1402.3517246835925
 30
0.0
 70
              32
  0
VERTEX
  5
209
100
AcDbEntity
  8
0
370
               0
390
0
 62
               1
100
AcDbVertex
100
AcDb3dPolylineVertex
 10
-187.41726381688761
 20
1401.1617952431131
 30
0.0
 70
              32
  0
VERTEX
  5
20A
100
AcDbEntity
  8
0
370
               0
390
0
 62
               1
100
AcDbVertex
100
AcDb3dPolylineVertex
 10
-187.00400377662606
 20
1400.0068108042303
 30
0.0
 70
              32
  0
VERTEX
  5
20B
100
AcDbEntity
  8
0
370
               0
390
0
 62
               1
100
AcDbVertex
100
AcDb3dPolylineVertex
 10
-186.4795254245895
 20
1398.897894498469
 30
0.0
 70
              32
  0
VERTEX
  5
20C
100
AcDbEntity
  8
0
370
               0
390
0
 62
               1
100
AcDbVertex
100
AcDb3dPolylineVertex
 10
-185.84887977401684
 20
1397.845725796049
 30
0.0
 70
              32
  0
VERTEX
  5
20D
100
AcDbEntity
  8
0
370
               0
390
0
 62
               1
100
AcDbVertex
100
AcDb3dPolylineVertex
 10
-185.11814028726928
 20
1396.8604376567484
 30
0.0
 70
              32
  0
VERTEX
  5
20E
100
AcDbEntity
  8
0
370
               0
390
0
 62
               1
100
AcDbVertex
100
AcDb3dPolylineVertex
 10
-184.29434438506689
 20
1395.9515189439621
 30
0.0
 70
              32
  0
VERTEX
  5
20F
100
AcDbEntity
  8
0
370
               0
390
0
 62
               1
100
AcDbVertex
100
AcDb3dPolylineVertex
 10
-183.38542567228058
 20
1395.1277230417597
 30
0.0
 70
              32
  0
VERTEX
  5
210
100
AcDbEntity
  8
0
370
               0
390
0
 62
               1
100
AcDbVertex
100
AcDb3dPolylineVertex
 10
-182.40013753298001
 20
1394.3969835550122
 30
0.0
 70
              32
  0
VERTEX
  5
211
100
AcDbEntity
  8
0
370
               0
390
0
 62
               1
100
AcDbVertex
100
AcDb3dPolylineVertex
 10
-181.34796883056003
 20
1393.7663379044395
 30
0.0
 70
              32
  0
VERTEX
  5
212
100
AcDbEntity
  8
0
370
               0
390
0
 62
               1
100
AcDbVertex
100
AcDb3dPolylineVertex
 10
-180.23905252479869
 20
1393.241859552403
 30
0.0
 70
              32
  0
VERTEX
  5
213
100
AcDbEntity
  8
0
370
               0
390
0
 62
               1
100
AcDbVertex
100
AcDb3dPolylineVertex
 10
-179.08406808591576
 20
1392.8285995121414
 30
0.0
 70
              32
  0
VERTEX
  5
214
100
AcDbEntity
  8
0
370
               0
390
0
 62
               1
100
AcDbVertex
100
AcDb3dPolylineVertex
 10
-177.89413864543667
 20
1392.5305377037537
 30
0.0
 70
              32
  0
VERTEX
  5
215
100
AcDbEntity
  8
0
370
               0
390
0
 62
               1
100
AcDbVertex
100
AcDb3dPolylineVertex
 10
-176.6807238743545
 20
1392.3505446253916
 30
0.0
 70
              32
  0
VERTEX
  5
216
100
AcDbEntity
  8
0
370
               0
390
0
 62
               1
100
AcDbVertex
100
AcDb3dPolylineVertex
 10
-175.45550962023503
 20
1392.2903537087941
 30
0.0
 70
              32
  0
VERTEX
  5
217
100
AcDbEntity
  8
0
370
               0
390
0
 62
               1
100
AcDbVertex
100
AcDb3dPolylineVertex
 10
-174.23029536611546
 20
1392.3505446253916
 30
0.0
 70
              32
  0
VERTEX
  5
218
100
AcDbEntity
  8
0
370
               0
390
0
 62
               1
100
AcDbVertex
100
AcDb3dPolylineVertex
 10
-173.0168805950334
 20
1392.5305377037537
 30
0.0
 70
              32
  0
VERTEX
  5
219
100
AcDbEntity
  8
0
370
               0
390
0
 62
               1
100
AcDbVertex
100
AcDb3dPolylineVertex
 10
-171.82695115455419
 20
1392.8285995121414
 30
0.0
 70
              32
  0
VERTEX
  5
21A
100
AcDbEntity
  8
0
370
               0
390
0
 62
               1
100
AcDbVertex
100
AcDb3dPolylineVertex
 10
-170.67196671567137
 20
1393.241859552403
 30
0.0
 70
              32
  0
VERTEX
  5
21B
100
AcDbEntity
  8
0
370
               0
390
0
 62
               1
100
AcDbVertex
100
AcDb3dPolylineVertex
 10
-169.56305040991003
 20
1393.7663379044395
 30
0.0
 70
              32
  0
VERTEX
  5
21C
100
AcDbEntity
  8
0
370
               0
390
0
 62
               1
100
AcDbVertex
100
AcDb3dPolylineVertex
 10
-168.51088170748994
 20
1394.3969835550122
 30
0.0
 70
              32
  0
VERTEX
  5
21D
100
AcDbEntity
  8
0
370
               0
390
0
 62
               1
100
AcDbVertex
100
AcDb3dPolylineVertex
 10
-167.52559356818949
 20
1395.1277230417597
 30
0.0
 70
              32
  0
VERTEX
  5
21E
100
AcDbEntity
  8
0
370
               0
390
0
 62
               1
100
AcDbVertex
100
AcDb3dPolylineVertex
 10
-166.61667485540318
 20
1395.9515189439621
 30
0.0
 70
              32
  0
VERTEX
  5
21F
100
AcDbEntity
  8
0
370
               0
390
0
 62
               1
100
AcDbVertex
100
AcDb3dPolylineVertex
 10
-165.79287895320078
 20
1396.8604376567484
 30
0.0
 70
              32
  0
VERTEX
  5
220
100
AcDbEntity
  8
0
370
               0
390
0
 62
               1
100
AcDbVertex
100
AcDb3dPolylineVertex
 10
-165.06213946645323
 20
1397.845725796049
 30
0.0
 70
              32
  0
VERTEX
  5
221
100
AcDbEntity
  8
0
370
               0
390
0
 62
               1
100
AcDbVertex
100
AcDb3dPolylineVertex
 10
-164.43149381588057
 20
1398.897894498469
 30
0.0
 70
              32
  0
VERTEX
  5
222
100
AcDbEntity
  8
0
370
               0
390
0
 62
               1
100
AcDbVertex
100
AcDb3dPolylineVertex
 10
-163.90701546384389
 20
1400.0068108042303
 30
0.0
 70
              32
  0
VERTEX
  5
223
100
AcDbEntity
  8
0
370
               0
390
0
 62
               1
100
AcDbVertex
100
AcDb3dPolylineVertex
 10
-163.49375542358246
 20
1401.1617952431131
 30
0.0
 70
              32
  0
VERTEX
  5
224
100
AcDbEntity
  8
0
370
               0
390
0
 62
               1
100
AcDbVertex
100
AcDb3dPolylineVertex
 10
-163.19569361519461
 20
1402.3517246835925
 30
0.0
 70
              32
  0
VERTEX
  5
225
100
AcDbEntity
  8
0
370
               0
390
0
 62
               1
100
AcDbVertex
100
AcDb3dPolylineVertex
 10
-163.01570053683258
 20
1403.5651394546744
 30
0.0
 70
              32
  0
VERTEX
  5
226
100
AcDbEntity
  8
0
370
               0
390
0
 62
               1
100
AcDbVertex
100
AcDb3dPolylineVertex
 10
-162.95550962023503
 20
1404.7903537087941
 30
0.0
 70
              32
  0
SEQEND
  5
227
100
AcDbEntity
  8
0
370
               0
390
0
 62
               1
  0
LINE
  5
228
100
AcDbEntity
  8
0
370
               0
390
0
 62
               1
100
AcDbLine
 10
10.044490379764966
 20
1378.7903537087941
 30
0.0
 11
11.044490379764966
 21
1378.7903537087941
 31
0.0
  0
LINE
  5
229
100
AcDbEntity
  8
0
370
               0
390
0
 62
               1
100
AcDbLine
 10
11.044490379764966
 20
1430.7903537087941
 30
0.0
 11
10.044490379764966
 21
1430.7903537087941
 31
0.0
  0
LINE
  5
22A
100
AcDbEntity
  8
0
370
               0
390
0
 62
               1
100
AcDbLine
 10
-361.95550962023503
 20
1378.7903537087941
 30
0.0
 11
-360.95550962023503
 21
1378.7903537087941
 31
0.0
  0
LINE
  5
22B
100
AcDbEntity
  8
0
370
               0
390
0
 62
               1
100
AcDbLine
 10
-360.95550962023503
 20
1430.7903537087941
 30
0.0
 11
-361.95550962023503
 21
1430.7903537087941
 31
0.0
  0
LINE
  5
22C
100
AcDbEntity
  8
0
370
               0
390
0
 62
               1
100
AcDbLine
 10
-364.95550962023503
 20
1404.7903537087941
 30
0.0
 11
-364.95550962023503
 21
1374.7903537087941
 31
0.0
  0
LINE
  5
22D
100
AcDbEntity
  8
0
370
               0
390
0
 62
               1
100
AcDbLine
 10
-364.95550962023503
 20
1434.7903537087941
 30
0.0
 11
-364.95550962023503
 21
1404.7903537087941
 31
0.0
  0
LINE
  5
22E
100
AcDbEntity
  8
0
370
               0
390
0
 62
               1
100
AcDbLine
 10
-361.95550962023503
 20
1404.7903537087941
 30
0.0
 11
-361.95550962023503
 21
1434.7903537087941
 31
0.0
  0
LINE
  5
22F
100
AcDbEntity
  8
0
370
               0
390
0
 62
               1
100
AcDbLine
 10
-361.95550962023503
 20
1374.7903537087941
 30
0.0
 11
-361.95550962023503
 21
1404.7903537087941
 31
0.0
  0
LINE
  5
230
100
AcDbEntity
  8
0
370
               0
390
0
 62
               1
100
AcDbLine
 10
11.044490379764966
 20
1404.7903537087941
 30
0.0
 11
11.044490379764966
 21
1374.7903537087941
 31
0.0
  0
LINE
  5
231
100
AcDbEntity
  8
0
370
               0
390
0
 62
               1
100
AcDbLine
 10
11.044490379764966
 20
1434.7903537087941
 30
0.0
 11
11.044490379764966
 21
1404.7903537087941
 31
0.0
  0
LINE
  5
232
100
AcDbEntity
  8
0
370
               0
390
0
 62
               1
100
AcDbLine
 10
14.044490379764966
 20
1404.7903537087941
 30
0.0
 11
14.044490379764966
 21
1434.7903537087941
 31
0.0
  0
LINE
  5
233
100
AcDbEntity
  8
0
370
               0
390
0
 62
               1
100
AcDbLine
 10
14.044490379764966
 20
1374.7903537087941
 30
0.0
 11
14.044490379764966
 21
1404.7903537087941
 31
0.0
  0
LINE
  5
234
100
AcDbEntity
  8
0
370
               0
390
0
 62
               1
100
AcDbLine
 10
10.044490379764966
 20
1430.7903537087941
 30
0.0
 11
10.044490379764966
 21
1431.7903537087941
 31
0.0
  0
LINE
  5
235
100
AcDbEntity
  8
0
370
               0
390
0
 62
               1
100
AcDbLine
 10
-360.95550962023503
 20
1431.7903537087941
 30
0.0
 11
-360.95550962023503
 21
1430.7903537087941
 31
0.0
  0
LINE
  5
236
100
AcDbEntity
  8
0
370
               0
390
0
 62
               1
100
AcDbLine
 10
-360.95550962023503
 20
1378.7903537087941
 30
0.0
 11
-360.95550962023503
 21
1377.7903537087941
 31
0.0
  0
LINE
  5
237
100
AcDbEntity
  8
0
370
               0
390
0
 62
               1
100
AcDbLine
 10
10.044490379764966
 20
1377.7903537087941
 30
0.0
 11
10.044490379764966
 21
1378.7903537087941
 31
0.0
  0
ENDBLK
  5
238
100
AcDbEntity
  8
0
390
0
100
AcDbBlockEnd
  0
BLOCK
  5
239
100
AcDbEntity
  8
0
390
0
100
AcDbBlockBegin
  2
グループ-6
 70
               0
 10
0.0
 20
0.0
 30
0.0
  3
グループ-6
  1

  0
ARC
  5
23A
100
AcDbEntity
  8
0
370
               0
390
0
 62
               1
100
AcDbCircle
 10
-360.95550962023685
 20
441.67923458799385
 30
0.0
 40
4.0
100
AcDbArc
 50
180.0
 51
270.0
  0
ARC
  5
23B
100
AcDbEntity
  8
0
370
               0
390
0
 62
               1
100
AcDbCircle
 10
-360.95550962023685
 20
441.67923458799385
 30
0.0
 40
1.0
100
AcDbArc
 50
180.0
 51
270.0
  0
ARC
  5
23C
100
AcDbEntity
  8
0
370
               0
390
0
 62
               1
100
AcDbCircle
 10
10.044490379763147
 20
441.67923458799385
 30
0.0
 40
4.0
100
AcDbArc
 50
270.0
 51
0.0
  0
ARC
  5
23D
100
AcDbEntity
  8
0
370
               0
390
0
 62
               1
100
AcDbCircle
 10
10.044490379763147
 20
441.67923458799385
 30
0.0
 40
1.0
100
AcDbArc
 50
270.0
 51
0.0
  0
POLYLINE
  5
23E
100
AcDbEntity
  8
0
370
               0
390
0
 62
               1
100
AcDb3dPolyline
 66
               1
 10
0.0
 20
0.0
 30
0.0
 70
               8
  0
VERTEX
  5
23F
100
AcDbEntity
  8
0
370
               0
390
0
 62
               1
100
AcDbVertex
100
AcDb3dPolylineVertex
 10
-361.95550962023685
 20
970.67923458799396
 30
0.000000000001819
 70
              32
  0
VERTEX
  5
240
100
AcDbEntity
  8
0
370
               0
390
0
 62
               1
100
AcDbVertex
100
AcDb3dPolylineVertex
 10
-364.95550962023685
 20
970.67923458799396
 30
0.000000000001819
 70
              32
  0
SEQEND
  5
241
100
AcDbEntity
  8
0
370
               0
390
0
 62
               1
  0
POLYLINE
  5
242
100
AcDbEntity
  8
0
370
               0
390
0
 62
               1
100
AcDb3dPolyline
 66
               1
 10
0.0
 20
0.0
 30
0.0
 70
               8
  0
VERTEX
  5
243
100
AcDbEntity
  8
0
370
               0
390
0
 62
               1
100
AcDbVertex
100
AcDb3dPolylineVertex
 10
11.044490379763147
 20
970.67923458799396
 30
0.000000000001819
 70
              32
  0
VERTEX
  5
244
100
AcDbEntity
  8
0
370
               0
390
0
 62
               1
100
AcDbVertex
100
AcDb3dPolylineVertex
 10
14.044490379763147
 20
970.67923458799396
 30
0.000000000001819
 70
              32
  0
SEQEND
  5
245
100
AcDbEntity
  8
0
370
               0
390
0
 62
               1
  0
POLYLINE
  5
246
100
AcDbEntity
  8
0
370
               0
390
0
 62
               1
100
AcDb3dPolyline
 66
               1
 10
0.0
 20
0.0
 30
0.0
 70
               8
  0
VERTEX
  5
247
100
AcDbEntity
  8
0
370
               0
390
0
 62
               1
100
AcDbVertex
100
AcDb3dPolylineVertex
 10
-360.95550962023685
 20
452.67923458799385
 30
0.000000000001819
 70
              32
  0
VERTEX
  5
248
100
AcDbEntity
  8
0
370
               0
390
0
 62
               1
100
AcDbVertex
100
AcDb3dPolylineVertex
 10
10.044490379763147
 20
452.67923458799385
 30
0.000000000001819
 70
              32
  0
SEQEND
  5
249
100
AcDbEntity
  8
0
370
               0
390
0
 62
               1
  0
POLYLINE
  5
24A
100
AcDbEntity
  8
0
370
               0
390
0
 62
               1
100
AcDb3dPolyline
 66
               1
 10
0.0
 20
0.0
 30
0.0
 70
               8
  0
VERTEX
  5
24B
100
AcDbEntity
  8
0
370
               0
390
0
 62
               1
100
AcDbVertex
100
AcDb3dPolylineVertex
 10
-360.95550962023685
 20
441.67923458799385
 30
0.000000000001819
 70
              32
  0
VERTEX
  5
24C
100
AcDbEntity
  8
0
370
               0
390
0
 62
               1
100
AcDbVertex
100
AcDb3dPolylineVertex
 10
-360.95550962023685
 20
452.67923458799385
 30
0.000000000001819
 70
              32
  0
SEQEND
  5
24D
100
AcDbEntity
  8
0
370
               0
390
0
 62
               1
  0
POLYLINE
  5
24E
100
AcDbEntity
  8
0
370
               0
390
0
 62
               1
100
AcDb3dPolyline
 66
               1
 10
0.0
 20
0.0
 30
0.0
 70
               8
  0
VERTEX
  5
24F
100
AcDbEntity
  8
0
370
               0
390
0
 62
               1
100
AcDbVertex
100
AcDb3dPolylineVertex
 10
10.044490379763147
 20
452.67923458799385
 30
0.000000000001819
 70
              32
  0
VERTEX
  5
250
100
AcDbEntity
  8
0
370
               0
390
0
 62
               1
100
AcDbVertex
100
AcDb3dPolylineVertex
 10
10.044490379763147
 20
441.67923458799385
 30
0.000000000001819
 70
              32
  0
SEQEND
  5
251
100
AcDbEntity
  8
0
370
               0
390
0
 62
               1
  0
POLYLINE
  5
252
100
AcDbEntity
  8
0
370
               0
390
0
 62
               1
100
AcDb3dPolyline
 66
               1
 10
0.0
 20
0.0
 30
0.0
 70
               8
  0
VERTEX
  5
253
100
AcDbEntity
  8
0
370
               0
390
0
 62
               1
100
AcDbVertex
100
AcDb3dPolylineVertex
 10
-361.95550962023685
 20
441.67923458799385
 30
0.000000000001819
 70
              32
  0
VERTEX
  5
254
100
AcDbEntity
  8
0
370
               0
390
0
 62
               1
100
AcDbVertex
100
AcDb3dPolylineVertex
 10
-361.95550962023685
 20
940.67923458799396
 30
0.000000000001819
 70
              32
  0
SEQEND
  5
255
100
AcDbEntity
  8
0
370
               0
390
0
 62
               1
  0
POLYLINE
  5
256
100
AcDbEntity
  8
0
370
               0
390
0
 62
               1
100
AcDb3dPolyline
 66
               1
 10
0.0
 20
0.0
 30
0.0
 70
               8
  0
VERTEX
  5
257
100
AcDbEntity
  8
0
370
               0
390
0
 62
               1
100
AcDbVertex
100
AcDb3dPolylineVertex
 10
-364.95550962023685
 20
441.67923458799385
 30
0.000000000001819
 70
              32
  0
VERTEX
  5
258
100
AcDbEntity
  8
0
370
               0
390
0
 62
               1
100
AcDbVertex
100
AcDb3dPolylineVertex
 10
-364.95550962023685
 20
940.67923458799396
 30
0.000000000001819
 70
              32
  0
SEQEND
  5
259
100
AcDbEntity
  8
0
370
               0
390
0
 62
               1
  0
POLYLINE
  5
25A
100
AcDbEntity
  8
0
370
               0
390
0
 62
               1
100
AcDb3dPolyline
 66
               1
 10
0.0
 20
0.0
 30
0.0
 70
               8
  0
VERTEX
  5
25B
100
AcDbEntity
  8
0
370
               0
390
0
 62
               1
100
AcDbVertex
100
AcDb3dPolylineVertex
 10
11.044490379763147
 20
940.67923458799396
 30
0.000000000001819
 70
              32
  0
VERTEX
  5
25C
100
AcDbEntity
  8
0
370
               0
390
0
 62
               1
100
AcDbVertex
100
AcDb3dPolylineVertex
 10
11.044490379763147
 20
441.67923458799385
 30
0.000000000001819
 70
              32
  0
SEQEND
  5
25D
100
AcDbEntity
  8
0
370
               0
390
0
 62
               1
  0
POLYLINE
  5
25E
100
AcDbEntity
  8
0
370
               0
390
0
 62
               1
100
AcDb3dPolyline
 66
               1
 10
0.0
 20
0.0
 30
0.0
 70
               8
  0
VERTEX
  5
25F
100
AcDbEntity
  8
0
370
               0
390
0
 62
               1
100
AcDbVertex
100
AcDb3dPolylineVertex
 10
14.044490379763147
 20
940.67923458799396
 30
0.000000000001819
 70
              32
  0
VERTEX
  5
260
100
AcDbEntity
  8
0
370
               0
390
0
 62
               1
100
AcDbVertex
100
AcDb3dPolylineVertex
 10
14.044490379763147
 20
441.67923458799385
 30
0.000000000001819
 70
              32
  0
SEQEND
  5
261
100
AcDbEntity
  8
0
370
               0
390
0
 62
               1
  0
POLYLINE
  5
262
100
AcDbEntity
  8
0
370
               0
390
0
 62
               1
100
AcDb3dPolyline
 66
               1
 10
0.0
 20
0.0
 30
0.0
 70
               8
  0
VERTEX
  5
263
100
AcDbEntity
  8
0
370
               0
390
0
 62
               1
100
AcDbVertex
100
AcDb3dPolylineVertex
 10
10.044490379763147
 20
437.67923458799385
 30
0.000000000001819
 70
              32
  0
VERTEX
  5
264
100
AcDbEntity
  8
0
370
               0
390
0
 62
               1
100
AcDbVertex
100
AcDb3dPolylineVertex
 10
-360.95550962023685
 20
437.67923458799385
 30
0.000000000001819
 70
              32
  0
SEQEND
  5
265
100
AcDbEntity
  8
0
370
               0
390
0
 62
               1
  0
POLYLINE
  5
266
100
AcDbEntity
  8
0
370
               0
390
0
 62
               1
100
AcDb3dPolyline
 66
               1
 10
0.0
 20
0.0
 30
0.0
 70
               8
  0
VERTEX
  5
267
100
AcDbEntity
  8
0
370
               0
390
0
 62
               1
100
AcDbVertex
100
AcDb3dPolylineVertex
 10
-364.95550962023685
 20
441.67923458799385
 30
0.000000000001819
 70
              32
  0
VERTEX
  5
268
100
AcDbEntity
  8
0
370
               0
390
0
 62
               1
100
AcDbVertex
100
AcDb3dPolylineVertex
 10
-361.95550962023685
 20
441.67923458799385
 30
0.000000000001819
 70
              32
  0
SEQEND
  5
269
100
AcDbEntity
  8
0
370
               0
390
0
 62
               1
  0
POLYLINE
  5
26A
100
AcDbEntity
  8
0
370
               0
390
0
 62
               1
100
AcDb3dPolyline
 66
               1
 10
0.0
 20
0.0
 30
0.0
 70
               8
  0
VERTEX
  5
26B
100
AcDbEntity
  8
0
370
               0
390
0
 62
               1
100
AcDbVertex
100
AcDb3dPolylineVertex
 10
11.044490379763147
 20
441.67923458799385
 30
0.000000000001819
 70
              32
  0
VERTEX
  5
26C
100
AcDbEntity
  8
0
370
               0
390
0
 62
               1
100
AcDbVertex
100
AcDb3dPolylineVertex
 10
14.044490379763147
 20
441.67923458799385
 30
0.000000000001819
 70
              32
  0
SEQEND
  5
26D
100
AcDbEntity
  8
0
370
               0
390
0
 62
               1
  0
POLYLINE
  5
26E
100
AcDbEntity
  8
0
370
               0
390
0
 62
               1
100
AcDb3dPolyline
 66
               1
 10
0.0
 20
0.0
 30
0.0
 70
               8
  0
VERTEX
  5
26F
100
AcDbEntity
  8
0
370
               0
390
0
 62
               1
100
AcDbVertex
100
AcDb3dPolylineVertex
 10
10.044490379763147
 20
437.67923458799385
 30
0.000000000001819
 70
              32
  0
VERTEX
  5
270
100
AcDbEntity
  8
0
370
               0
390
0
 62
               1
100
AcDbVertex
100
AcDb3dPolylineVertex
 10
10.044490379763147
 20
441.67923458799385
 30
0.000000000001819
 70
              32
  0
SEQEND
  5
271
100
AcDbEntity
  8
0
370
               0
390
0
 62
               1
  0
POLYLINE
  5
272
100
AcDbEntity
  8
0
370
               0
390
0
 62
               1
100
AcDb3dPolyline
 66
               1
 10
0.0
 20
0.0
 30
0.0
 70
               8
  0
VERTEX
  5
273
100
AcDbEntity
  8
0
370
               0
390
0
 62
               1
100
AcDbVertex
100
AcDb3dPolylineVertex
 10
-360.95550962023685
 20
441.67923458799385
 30
0.000000000001819
 70
              32
  0
VERTEX
  5
274
100
AcDbEntity
  8
0
370
               0
390
0
 62
               1
100
AcDbVertex
100
AcDb3dPolylineVertex
 10
-360.95550962023685
 20
437.67923458799385
 30
0.000000000001819
 70
              32
  0
SEQEND
  5
275
100
AcDbEntity
  8
0
370
               0
390
0
 62
               1
  0
POLYLINE
  5
276
100
AcDbEntity
  8
0
370
               0
390
0
 62
               1
100
AcDb3dPolyline
 66
               1
 10
0.0
 20
0.0
 30
0.0
 70
               8
  0
VERTEX
  5
277
100
AcDbEntity
  8
0
370
               0
390
0
 62
               1
100
AcDbVertex
100
AcDb3dPolylineVertex
 10
14.044490379763147
 20
940.67923458799396
 30
0.000000000001819
 70
              32
  0
VERTEX
  5
278
100
AcDbEntity
  8
0
370
               0
390
0
 62
               1
100
AcDbVertex
100
AcDb3dPolylineVertex
 10
14.044490379763147
 20
970.67923458799396
 30
0.000000000001819
 70
              32
  0
SEQEND
  5
279
100
AcDbEntity
  8
0
370
               0
390
0
 62
               1
  0
POLYLINE
  5
27A
100
AcDbEntity
  8
0
370
               0
390
0
 62
               1
100
AcDb3dPolyline
 66
               1
 10
0.0
 20
0.0
 30
0.0
 70
               8
  0
VERTEX
  5
27B
100
AcDbEntity
  8
0
370
               0
390
0
 62
               1
100
AcDbVertex
100
AcDb3dPolylineVertex
 10
11.044490379763147
 20
970.67923458799396
 30
0.000000000001819
 70
              32
  0
VERTEX
  5
27C
100
AcDbEntity
  8
0
370
               0
390
0
 62
               1
100
AcDbVertex
100
AcDb3dPolylineVertex
 10
11.044490379763147
 20
940.67923458799396
 30
0.000000000001819
 70
              32
  0
SEQEND
  5
27D
100
AcDbEntity
  8
0
370
               0
390
0
 62
               1
  0
POLYLINE
  5
27E
100
AcDbEntity
  8
0
370
               0
390
0
 62
               1
100
AcDb3dPolyline
 66
               1
 10
0.0
 20
0.0
 30
0.0
 70
               8
  0
VERTEX
  5
27F
100
AcDbEntity
  8
0
370
               0
390
0
 62
               1
100
AcDbVertex
100
AcDb3dPolylineVertex
 10
-361.95550962023685
 20
940.67923458799396
 30
0.000000000001819
 70
              32
  0
VERTEX
  5
280
100
AcDbEntity
  8
0
370
               0
390
0
 62
               1
100
AcDbVertex
100
AcDb3dPolylineVertex
 10
-361.95550962023685
 20
970.67923458799396
 30
0.000000000001819
 70
              32
  0
SEQEND
  5
281
100
AcDbEntity
  8
0
370
               0
390
0
 62
               1
  0
POLYLINE
  5
282
100
AcDbEntity
  8
0
370
               0
390
0
 62
               1
100
AcDb3dPolyline
 66
               1
 10
0.0
 20
0.0
 30
0.0
 70
               8
  0
VERTEX
  5
283
100
AcDbEntity
  8
0
370
               0
390
0
 62
               1
100
AcDbVertex
100
AcDb3dPolylineVertex
 10
-364.95550962023685
 20
970.67923458799396
 30
0.000000000001819
 70
              32
  0
VERTEX
  5
284
100
AcDbEntity
  8
0
370
               0
390
0
 62
               1
100
AcDbVertex
100
AcDb3dPolylineVertex
 10
-364.95550962023685
 20
940.67923458799396
 30
0.000000000001819
 70
              32
  0
SEQEND
  5
285
100
AcDbEntity
  8
0
370
               0
390
0
 62
               1
  0
ENDBLK
  5
286
100
AcDbEntity
  8
0
390
0
100
AcDbBlockEnd
  0
BLOCK
  5
287
100
AcDbEntity
  8
0
390
0
100
AcDbBlockBegin
  2
グループ-7
 70
               0
 10
0.0
 20
0.0
 30
0.0
  3
グループ-7
  1

  0
ARC
  5
288
100
AcDbEntity
  8
0
370
               0
390
0
 62
               1
100
AcDbCircle
 10
626.91875825401053
 20
940.67923458799396
 30
0.0
 40
4.3999999999999773
100
AcDbArc
 50
180.0
 51
0.0
  0
POLYLINE
  5
289
100
AcDbEntity
  8
0
370
               0
390
0
 62
               1
100
AcDb3dPolyline
 66
               1
 10
0.0
 20
0.0
 30
0.0
 70
               8
  0
VERTEX
  5
28A
100
AcDbEntity
  8
0
370
               0
390
0
 62
               1
100
AcDbVertex
100
AcDb3dPolylineVertex
 10
622.01875825401044
 20
940.67923458799396
 30
-0.000000003018069
 70
              32
  0
VERTEX
  5
28B
100
AcDbEntity
  8
0
370
               0
390
0
 62
               1
100
AcDbVertex
100
AcDb3dPolylineVertex
 10
622.04235309331671
 20
940.19895060037925
 30
-0.000000003018076
 70
              32
  0
VERTEX
  5
28C
100
AcDbEntity
  8
0
370
               0
390
0
 62
               1
100
AcDbVertex
100
AcDb3dPolylineVertex
 10
622.11291038003458
 20
939.72329201011507
 30
-0.0000000030180969
 70
              32
  0
VERTEX
  5
28D
100
AcDbEntity
  8
0
370
               0
390
0
 62
               1
100
AcDbVertex
100
AcDb3dPolylineVertex
 10
622.22975060892259
 20
939.25683966944712
 30
-0.0000000030181316
 70
              32
  0
VERTEX
  5
28E
100
AcDbEntity
  8
0
370
               0
390
0
 62
               1
100
AcDbVertex
100
AcDb3dPolylineVertex
 10
622.39174854470514
 20
938.80408576940499
 30
-0.0000000030181796
 70
              32
  0
VERTEX
  5
28F
100
AcDbEntity
  8
0
370
               0
390
0
 62
               1
100
AcDbVertex
100
AcDb3dPolylineVertex
 10
622.59734405870347
 20
938.36939057754648
 30
-0.0000000030182406
 70
              32
  0
VERTEX
  5
290
100
AcDbEntity
  8
0
370
               0
390
0
 62
               1
100
AcDbVertex
100
AcDb3dPolylineVertex
 10
622.84455715372803
 20
937.9569404461979
 30
-0.0000000030183139
 70
              32
  0
VERTEX
  5
291
100
AcDbEntity
  8
0
370
               0
390
0
 62
               1
100
AcDbVertex
100
AcDb3dPolylineVertex
 10
623.13100703253303
 20
937.57070749559216
 30
-0.0000000030183989
 70
              32
  0
VERTEX
  5
292
100
AcDbEntity
  8
0
370
               0
390
0
 62
               1
100
AcDbVertex
100
AcDb3dPolylineVertex
 10
623.4539350261964
 20
937.21441136017984
 30
-0.0000000030184947
 70
              32
  0
VERTEX
  5
293
100
AcDbEntity
  8
0
370
               0
390
0
 62
               1
100
AcDbVertex
100
AcDb3dPolylineVertex
 10
623.81023116160861
 20
936.89148336651647
 30
-0.0000000030186004
 70
              32
  0
VERTEX
  5
294
100
AcDbEntity
  8
0
370
               0
390
0
 62
               1
100
AcDbVertex
100
AcDb3dPolylineVertex
 10
624.19646411221447
 20
936.60503348771135
 30
-0.0000000030187149
 70
              32
  0
VERTEX
  5
295
100
AcDbEntity
  8
0
370
               0
390
0
 62
               1
100
AcDbVertex
100
AcDb3dPolylineVertex
 10
624.60891424356305
 20
936.35782039268679
 30
-0.0000000030188373
 70
              32
  0
VERTEX
  5
296
100
AcDbEntity
  8
0
370
               0
390
0
 62
               1
100
AcDbVertex
100
AcDb3dPolylineVertex
 10
625.04360943542156
 20
936.15222487868868
 30
-0.0000000030189662
 70
              32
  0
VERTEX
  5
297
100
AcDbEntity
  8
0
370
               0
390
0
 62
               1
100
AcDbVertex
100
AcDb3dPolylineVertex
 10
625.49636333546368
 20
935.99022694290602
 30
-0.0000000030191005
 70
              32
  0
VERTEX
  5
298
100
AcDbEntity
  8
0
370
               0
390
0
 62
               1
100
AcDbVertex
100
AcDb3dPolylineVertex
 10
625.96281567613153
 20
935.87338671401812
 30
-0.0000000030192389
 70
              32
  0
VERTEX
  5
299
100
AcDbEntity
  8
0
370
               0
390
0
 62
               1
100
AcDbVertex
100
AcDb3dPolylineVertex
 10
626.4384742663957
 20
935.80282942730014
 30
-0.00000000301938
 70
              32
  0
VERTEX
  5
29A
100
AcDbEntity
  8
0
370
               0
390
0
 62
               1
100
AcDbVertex
100
AcDb3dPolylineVertex
 10
626.91875825401053
 20
935.77923458799387
 30
-0.0000000030195224
 70
              32
  0
VERTEX
  5
29B
100
AcDbEntity
  8
0
370
               0
390
0
 62
               1
100
AcDbVertex
100
AcDb3dPolylineVertex
 10
627.39904224162535
 20
935.80282942730014
 30
-0.0000000030196649
 70
              32
  0
VERTEX
  5
29C
100
AcDbEntity
  8
0
370
               0
390
0
 62
               1
100
AcDbVertex
100
AcDb3dPolylineVertex
 10
627.87470083188953
 20
935.87338671401812
 30
-0.000000003019806
 70
              32
  0
VERTEX
  5
29D
100
AcDbEntity
  8
0
370
               0
390
0
 62
               1
100
AcDbVertex
100
AcDb3dPolylineVertex
 10
628.34115317255737
 20
935.99022694290602
 30
-0.0000000030199443
 70
              32
  0
VERTEX
  5
29E
100
AcDbEntity
  8
0
370
               0
390
0
 62
               1
100
AcDbVertex
100
AcDb3dPolylineVertex
 10
628.7939070725995
 20
936.15222487868868
 30
-0.0000000030200786
 70
              32
  0
VERTEX
  5
29F
100
AcDbEntity
  8
0
370
               0
390
0
 62
               1
100
AcDbVertex
100
AcDb3dPolylineVertex
 10
629.228602264458
 20
936.35782039268679
 30
-0.0000000030202075
 70
              32
  0
VERTEX
  5
2A0
100
AcDbEntity
  8
0
370
               0
390
0
 62
               1
100
AcDbVertex
100
AcDb3dPolylineVertex
 10
629.64105239580658
 20
936.60503348771135
 30
-0.0000000030203299
 70
              32
  0
VERTEX
  5
2A1
100
AcDbEntity
  8
0
370
               0
390
0
 62
               1
100
AcDbVertex
100
AcDb3dPolylineVertex
 10
630.02728534641244
 20
936.89148336651647
 30
-0.0000000030204444
 70
              32
  0
VERTEX
  5
2A2
100
AcDbEntity
  8
0
370
               0
390
0
 62
               1
100
AcDbVertex
100
AcDb3dPolylineVertex
 10
630.38358148182465
 20
937.21441136017984
 30
-0.0000000030205501
 70
              32
  0
VERTEX
  5
2A3
100
AcDbEntity
  8
0
370
               0
390
0
 62
               1
100
AcDbVertex
100
AcDb3dPolylineVertex
 10
630.70650947548802
 20
937.57070749559216
 30
-0.0000000030206459
 70
              32
  0
VERTEX
  5
2A4
100
AcDbEntity
  8
0
370
               0
390
0
 62
               1
100
AcDbVertex
100
AcDb3dPolylineVertex
 10
630.99295935429302
 20
937.9569404461979
 30
-0.0000000030207309
 70
              32
  0
VERTEX
  5
2A5
100
AcDbEntity
  8
0
370
               0
390
0
 62
               1
100
AcDbVertex
100
AcDb3dPolylineVertex
 10
631.24017244931758
 20
938.36939057754648
 30
-0.0000000030208042
 70
              32
  0
VERTEX
  5
2A6
100
AcDbEntity
  8
0
370
               0
390
0
 62
               1
100
AcDbVertex
100
AcDb3dPolylineVertex
 10
631.44576796331592
 20
938.80408576940499
 30
-0.0000000030208652
 70
              32
  0
VERTEX
  5
2A7
100
AcDbEntity
  8
0
370
               0
390
0
 62
               1
100
AcDbVertex
100
AcDb3dPolylineVertex
 10
631.60776589909847
 20
939.25683966944712
 30
-0.0000000030209132
 70
              32
  0
VERTEX
  5
2A8
100
AcDbEntity
  8
0
370
               0
390
0
 62
               1
100
AcDbVertex
100
AcDb3dPolylineVertex
 10
631.72460612798648
 20
939.72329201011507
 30
-0.0000000030209479
 70
              32
  0
VERTEX
  5
2A9
100
AcDbEntity
  8
0
370
               0
390
0
 62
               1
100
AcDbVertex
100
AcDb3dPolylineVertex
 10
631.79516341470435
 20
940.19895060037925
 30
-0.0000000030209688
 70
              32
  0
VERTEX
  5
2AA
100
AcDbEntity
  8
0
370
               0
390
0
 62
               1
100
AcDbVertex
100
AcDb3dPolylineVertex
 10
631.81875825401062
 20
940.67923458799396
 30
-0.0000000030209758
 70
              32
  0
SEQEND
  5
2AB
100
AcDbEntity
  8
0
370
               0
390
0
 62
               1
  0
ARC
  5
2AC
100
AcDbEntity
  8
0
370
               0
390
0
 62
               1
100
AcDbCircle
 10
626.91875825401053
 20
870.67923458799396
 30
0.0
 40
4.3999999999999773
100
AcDbArc
 50
180.0
 51
0.0
  0
POLYLINE
  5
2AD
100
AcDbEntity
  8
0
370
               0
390
0
 62
               1
100
AcDb3dPolyline
 66
               1
 10
0.0
 20
0.0
 30
0.0
 70
               8
  0
VERTEX
  5
2AE
100
AcDbEntity
  8
0
370
               0
390
0
 62
               1
100
AcDbVertex
100
AcDb3dPolylineVertex
 10
622.01875825401044
 20
870.67923458799396
 30
-0.000000003018069
 70
              32
  0
VERTEX
  5
2AF
100
AcDbEntity
  8
0
370
               0
390
0
 62
               1
100
AcDbVertex
100
AcDb3dPolylineVertex
 10
622.04235309331671
 20
870.19895060037925
 30
-0.000000003018076
 70
              32
  0
VERTEX
  5
2B0
100
AcDbEntity
  8
0
370
               0
390
0
 62
               1
100
AcDbVertex
100
AcDb3dPolylineVertex
 10
622.11291038003458
 20
869.72329201011507
 30
-0.0000000030180969
 70
              32
  0
VERTEX
  5
2B1
100
AcDbEntity
  8
0
370
               0
390
0
 62
               1
100
AcDbVertex
100
AcDb3dPolylineVertex
 10
622.22975060892259
 20
869.25683966944712
 30
-0.0000000030181316
 70
              32
  0
VERTEX
  5
2B2
100
AcDbEntity
  8
0
370
               0
390
0
 62
               1
100
AcDbVertex
100
AcDb3dPolylineVertex
 10
622.39174854470514
 20
868.80408576940499
 30
-0.0000000030181796
 70
              32
  0
VERTEX
  5
2B3
100
AcDbEntity
  8
0
370
               0
390
0
 62
               1
100
AcDbVertex
100
AcDb3dPolylineVertex
 10
622.59734405870347
 20
868.36939057754648
 30
-0.0000000030182406
 70
              32
  0
VERTEX
  5
2B4
100
AcDbEntity
  8
0
370
               0
390
0
 62
               1
100
AcDbVertex
100
AcDb3dPolylineVertex
 10
622.84455715372803
 20
867.9569404461979
 30
-0.0000000030183139
 70
              32
  0
VERTEX
  5
2B5
100
AcDbEntity
  8
0
370
               0
390
0
 62
               1
100
AcDbVertex
100
AcDb3dPolylineVertex
 10
623.13100703253303
 20
867.57070749559216
 30
-0.0000000030183989
 70
              32
  0
VERTEX
  5
2B6
100
AcDbEntity
  8
0
370
               0
390
0
 62
               1
100
AcDbVertex
100
AcDb3dPolylineVertex
 10
623.4539350261964
 20
867.21441136017984
 30
-0.0000000030184947
 70
              32
  0
VERTEX
  5
2B7
100
AcDbEntity
  8
0
370
               0
390
0
 62
               1
100
AcDbVertex
100
AcDb3dPolylineVertex
 10
623.81023116160861
 20
866.89148336651647
 30
-0.0000000030186004
 70
              32
  0
VERTEX
  5
2B8
100
AcDbEntity
  8
0
370
               0
390
0
 62
               1
100
AcDbVertex
100
AcDb3dPolylineVertex
 10
624.19646411221447
 20
866.60503348771135
 30
-0.0000000030187149
 70
              32
  0
VERTEX
  5
2B9
100
AcDbEntity
  8
0
370
               0
390
0
 62
               1
100
AcDbVertex
100
AcDb3dPolylineVertex
 10
624.60891424356305
 20
866.35782039268679
 30
-0.0000000030188373
 70
              32
  0
VERTEX
  5
2BA
100
AcDbEntity
  8
0
370
               0
390
0
 62
               1
100
AcDbVertex
100
AcDb3dPolylineVertex
 10
625.04360943542156
 20
866.15222487868868
 30
-0.0000000030189662
 70
              32
  0
VERTEX
  5
2BB
100
AcDbEntity
  8
0
370
               0
390
0
 62
               1
100
AcDbVertex
100
AcDb3dPolylineVertex
 10
625.49636333546368
 20
865.99022694290602
 30
-0.0000000030191005
 70
              32
  0
VERTEX
  5
2BC
100
AcDbEntity
  8
0
370
               0
390
0
 62
               1
100
AcDbVertex
100
AcDb3dPolylineVertex
 10
625.96281567613153
 20
865.87338671401812
 30
-0.0000000030192389
 70
              32
  0
VERTEX
  5
2BD
100
AcDbEntity
  8
0
370
               0
390
0
 62
               1
100
AcDbVertex
100
AcDb3dPolylineVertex
 10
626.4384742663957
 20
865.80282942730014
 30
-0.00000000301938
 70
              32
  0
VERTEX
  5
2BE
100
AcDbEntity
  8
0
370
               0
390
0
 62
               1
100
AcDbVertex
100
AcDb3dPolylineVertex
 10
626.91875825401053
 20
865.77923458799387
 30
-0.0000000030195224
 70
              32
  0
VERTEX
  5
2BF
100
AcDbEntity
  8
0
370
               0
390
0
 62
               1
100
AcDbVertex
100
AcDb3dPolylineVertex
 10
627.39904224162535
 20
865.80282942730014
 30
-0.0000000030196649
 70
              32
  0
VERTEX
  5
2C0
100
AcDbEntity
  8
0
370
               0
390
0
 62
               1
100
AcDbVertex
100
AcDb3dPolylineVertex
 10
627.87470083188953
 20
865.87338671401812
 30
-0.000000003019806
 70
              32
  0
VERTEX
  5
2C1
100
AcDbEntity
  8
0
370
               0
390
0
 62
               1
100
AcDbVertex
100
AcDb3dPolylineVertex
 10
628.34115317255737
 20
865.99022694290602
 30
-0.0000000030199443
 70
              32
  0
VERTEX
  5
2C2
100
AcDbEntity
  8
0
370
               0
390
0
 62
               1
100
AcDbVertex
100
AcDb3dPolylineVertex
 10
628.7939070725995
 20
866.15222487868868
 30
-0.0000000030200786
 70
              32
  0
VERTEX
  5
2C3
100
AcDbEntity
  8
0
370
               0
390
0
 62
               1
100
AcDbVertex
100
AcDb3dPolylineVertex
 10
629.228602264458
 20
866.35782039268679
 30
-0.0000000030202075
 70
              32
  0
VERTEX
  5
2C4
100
AcDbEntity
  8
0
370
               0
390
0
 62
               1
100
AcDbVertex
100
AcDb3dPolylineVertex
 10
629.64105239580658
 20
866.60503348771135
 30
-0.0000000030203299
 70
              32
  0
VERTEX
  5
2C5
100
AcDbEntity
  8
0
370
               0
390
0
 62
               1
100
AcDbVertex
100
AcDb3dPolylineVertex
 10
630.02728534641244
 20
866.89148336651647
 30
-0.0000000030204444
 70
              32
  0
VERTEX
  5
2C6
100
AcDbEntity
  8
0
370
               0
390
0
 62
               1
100
AcDbVertex
100
AcDb3dPolylineVertex
 10
630.38358148182465
 20
867.21441136017984
 30
-0.0000000030205501
 70
              32
  0
VERTEX
  5
2C7
100
AcDbEntity
  8
0
370
               0
390
0
 62
               1
100
AcDbVertex
100
AcDb3dPolylineVertex
 10
630.70650947548802
 20
867.57070749559216
 30
-0.0000000030206459
 70
              32
  0
VERTEX
  5
2C8
100
AcDbEntity
  8
0
370
               0
390
0
 62
               1
100
AcDbVertex
100
AcDb3dPolylineVertex
 10
630.99295935429302
 20
867.9569404461979
 30
-0.0000000030207309
 70
              32
  0
VERTEX
  5
2C9
100
AcDbEntity
  8
0
370
               0
390
0
 62
               1
100
AcDbVertex
100
AcDb3dPolylineVertex
 10
631.24017244931758
 20
868.36939057754648
 30
-0.0000000030208042
 70
              32
  0
VERTEX
  5
2CA
100
AcDbEntity
  8
0
370
               0
390
0
 62
               1
100
AcDbVertex
100
AcDb3dPolylineVertex
 10
631.44576796331592
 20
868.80408576940499
 30
-0.0000000030208652
 70
              32
  0
VERTEX
  5
2CB
100
AcDbEntity
  8
0
370
               0
390
0
 62
               1
100
AcDbVertex
100
AcDb3dPolylineVertex
 10
631.60776589909847
 20
869.25683966944712
 30
-0.0000000030209132
 70
              32
  0
VERTEX
  5
2CC
100
AcDbEntity
  8
0
370
               0
390
0
 62
               1
100
AcDbVertex
100
AcDb3dPolylineVertex
 10
631.72460612798648
 20
869.72329201011507
 30
-0.0000000030209479
 70
              32
  0
VERTEX
  5
2CD
100
AcDbEntity
  8
0
370
               0
390
0
 62
               1
100
AcDbVertex
100
AcDb3dPolylineVertex
 10
631.79516341470435
 20
870.19895060037925
 30
-0.0000000030209688
 70
              32
  0
VERTEX
  5
2CE
100
AcDbEntity
  8
0
370
               0
390
0
 62
               1
100
AcDbVertex
100
AcDb3dPolylineVertex
 10
631.81875825401062
 20
870.67923458799396
 30
-0.0000000030209758
 70
              32
  0
SEQEND
  5
2CF
100
AcDbEntity
  8
0
370
               0
390
0
 62
               1
  0
POLYLINE
  5
2D0
100
AcDbEntity
  8
0
370
               0
390
0
 62
               1
100
AcDb3dPolyline
 66
               1
 10
0.0
 20
0.0
 30
0.0
 70
               8
  0
VERTEX
  5
2D1
100
AcDbEntity
  8
0
370
               0
390
0
 62
               1
100
AcDbVertex
100
AcDb3dPolylineVertex
 10
600.91875825401235
 20
437.67923458799385
 30
-0.0000000030122465
 70
              32
  0
VERTEX
  5
2D2
100
AcDbEntity
  8
0
370
               0
390
0
 62
               1
100
AcDbVertex
100
AcDb3dPolylineVertex
 10
652.91875825401235
 20
437.67923458799385
 30
-0.0000000030267984
 70
              32
  0
SEQEND
  5
2D3
100
AcDbEntity
  8
0
370
               0
390
0
 62
               1
  0
POLYLINE
  5
2D4
100
AcDbEntity
  8
0
370
               0
390
0
 62
               1
100
AcDb3dPolyline
 66
               1
 10
0.0
 20
0.0
 30
0.0
 70
               8
  0
VERTEX
  5
2D5
100
AcDbEntity
  8
0
370
               0
390
0
 62
               1
100
AcDbVertex
100
AcDb3dPolylineVertex
 10
596.91875825401053
 20
441.67923458799385
 30
-0.0000000030104275
 70
              32
  0
VERTEX
  5
2D6
100
AcDbEntity
  8
0
370
               0
390
0
 62
               1
100
AcDbVertex
100
AcDb3dPolylineVertex
 10
596.91875825401053
 20
940.67923458799396
 30
-0.0000000030104275
 70
              32
  0
SEQEND
  5
2D7
100
AcDbEntity
  8
0
370
               0
390
0
 62
               1
  0
POLYLINE
  5
2D8
100
AcDbEntity
  8
0
370
               0
390
0
 62
               1
100
AcDb3dPolyline
 66
               1
 10
0.0
 20
0.0
 30
0.0
 70
               8
  0
VERTEX
  5
2D9
100
AcDbEntity
  8
0
370
               0
390
0
 62
               1
100
AcDbVertex
100
AcDb3dPolylineVertex
 10
631.81875825401062
 20
870.67923458799396
 30
-0.0000000030209758
 70
              32
  0
VERTEX
  5
2DA
100
AcDbEntity
  8
0
370
               0
390
0
 62
               1
100
AcDbVertex
100
AcDb3dPolylineVertex
 10
631.79516341470435
 20
871.15951857560867
 30
-0.0000000030209688
 70
              32
  0
VERTEX
  5
2DB
100
AcDbEntity
  8
0
370
               0
390
0
 62
               1
100
AcDbVertex
100
AcDb3dPolylineVertex
 10
631.72460612798648
 20
871.63517716587285
 30
-0.0000000030209479
 70
              32
  0
VERTEX
  5
2DC
100
AcDbEntity
  8
0
370
               0
390
0
 62
               1
100
AcDbVertex
100
AcDb3dPolylineVertex
 10
631.60776589909847
 20
872.1016295065408
 30
-0.0000000030209132
 70
              32
  0
VERTEX
  5
2DD
100
AcDbEntity
  8
0
370
               0
390
0
 62
               1
100
AcDbVertex
100
AcDb3dPolylineVertex
 10
631.44576796331592
 20
872.55438340658293
 30
-0.0000000030208652
 70
              32
  0
VERTEX
  5
2DE
100
AcDbEntity
  8
0
370
               0
390
0
 62
               1
100
AcDbVertex
100
AcDb3dPolylineVertex
 10
631.24017244931758
 20
872.98907859844144
 30
-0.0000000030208042
 70
              32
  0
VERTEX
  5
2DF
100
AcDbEntity
  8
0
370
               0
390
0
 62
               1
100
AcDbVertex
100
AcDb3dPolylineVertex
 10
630.99295935429302
 20
873.40152872979002
 30
-0.0000000030207309
 70
              32
  0
VERTEX
  5
2E0
100
AcDbEntity
  8
0
370
               0
390
0
 62
               1
100
AcDbVertex
100
AcDb3dPolylineVertex
 10
630.70650947548802
 20
873.78776168039576
 30
-0.0000000030206459
 70
              32
  0
VERTEX
  5
2E1
100
AcDbEntity
  8
0
370
               0
390
0
 62
               1
100
AcDbVertex
100
AcDb3dPolylineVertex
 10
630.38358148182465
 20
874.14405781580808
 30
-0.0000000030205501
 70
              32
  0
VERTEX
  5
2E2
100
AcDbEntity
  8
0
370
               0
390
0
 62
               1
100
AcDbVertex
100
AcDb3dPolylineVertex
 10
630.02728534641244
 20
874.46698580947145
 30
-0.0000000030204444
 70
              32
  0
VERTEX
  5
2E3
100
AcDbEntity
  8
0
370
               0
390
0
 62
               1
100
AcDbVertex
100
AcDb3dPolylineVertex
 10
629.64105239580658
 20
874.75343568827657
 30
-0.0000000030203299
 70
              32
  0
VERTEX
  5
2E4
100
AcDbEntity
  8
0
370
               0
390
0
 62
               1
100
AcDbVertex
100
AcDb3dPolylineVertex
 10
629.228602264458
 20
875.00064878330113
 30
-0.0000000030202075
 70
              32
  0
VERTEX
  5
2E5
100
AcDbEntity
  8
0
370
               0
390
0
 62
               1
100
AcDbVertex
100
AcDb3dPolylineVertex
 10
628.7939070725995
 20
875.20624429729924
 30
-0.0000000030200786
 70
              32
  0
VERTEX
  5
2E6
100
AcDbEntity
  8
0
370
               0
390
0
 62
               1
100
AcDbVertex
100
AcDb3dPolylineVertex
 10
628.34115317255737
 20
875.3682422330819
 30
-0.0000000030199443
 70
              32
  0
VERTEX
  5
2E7
100
AcDbEntity
  8
0
370
               0
390
0
 62
               1
100
AcDbVertex
100
AcDb3dPolylineVertex
 10
627.87470083188953
 20
875.4850824619698
 30
-0.000000003019806
 70
              32
  0
VERTEX
  5
2E8
100
AcDbEntity
  8
0
370
               0
390
0
 62
               1
100
AcDbVertex
100
AcDb3dPolylineVertex
 10
627.39904224162535
 20
875.55563974868778
 30
-0.0000000030196649
 70
              32
  0
VERTEX
  5
2E9
100
AcDbEntity
  8
0
370
               0
390
0
 62
               1
100
AcDbVertex
100
AcDb3dPolylineVertex
 10
626.91875825401053
 20
875.57923458799405
 30
-0.0000000030195224
 70
              32
  0
VERTEX
  5
2EA
100
AcDbEntity
  8
0
370
               0
390
0
 62
               1
100
AcDbVertex
100
AcDb3dPolylineVertex
 10
626.4384742663957
 20
875.55563974868778
 30
-0.00000000301938
 70
              32
  0
VERTEX
  5
2EB
100
AcDbEntity
  8
0
370
               0
390
0
 62
               1
100
AcDbVertex
100
AcDb3dPolylineVertex
 10
625.96281567613153
 20
875.4850824619698
 30
-0.0000000030192389
 70
              32
  0
VERTEX
  5
2EC
100
AcDbEntity
  8
0
370
               0
390
0
 62
               1
100
AcDbVertex
100
AcDb3dPolylineVertex
 10
625.49636333546368
 20
875.3682422330819
 30
-0.0000000030191005
 70
              32
  0
VERTEX
  5
2ED
100
AcDbEntity
  8
0
370
               0
390
0
 62
               1
100
AcDbVertex
100
AcDb3dPolylineVertex
 10
625.04360943542156
 20
875.20624429729924
 30
-0.0000000030189662
 70
              32
  0
VERTEX
  5
2EE
100
AcDbEntity
  8
0
370
               0
390
0
 62
               1
100
AcDbVertex
100
AcDb3dPolylineVertex
 10
624.60891424356305
 20
875.00064878330113
 30
-0.0000000030188373
 70
              32
  0
VERTEX
  5
2EF
100
AcDbEntity
  8
0
370
               0
390
0
 62
               1
100
AcDbVertex
100
AcDb3dPolylineVertex
 10
624.19646411221447
 20
874.75343568827657
 30
-0.0000000030187149
 70
              32
  0
VERTEX
  5
2F0
100
AcDbEntity
  8
0
370
               0
390
0
 62
               1
100
AcDbVertex
100
AcDb3dPolylineVertex
 10
623.81023116160861
 20
874.46698580947145
 30
-0.0000000030186004
 70
              32
  0
VERTEX
  5
2F1
100
AcDbEntity
  8
0
370
               0
390
0
 62
               1
100
AcDbVertex
100
AcDb3dPolylineVertex
 10
623.4539350261964
 20
874.14405781580808
 30
-0.0000000030184947
 70
              32
  0
VERTEX
  5
2F2
100
AcDbEntity
  8
0
370
               0
390
0
 62
               1
100
AcDbVertex
100
AcDb3dPolylineVertex
 10
623.13100703253303
 20
873.78776168039576
 30
-0.0000000030183989
 70
              32
  0
VERTEX
  5
2F3
100
AcDbEntity
  8
0
370
               0
390
0
 62
               1
100
AcDbVertex
100
AcDb3dPolylineVertex
 10
622.84455715372803
 20
873.40152872979002
 30
-0.0000000030183139
 70
              32
  0
VERTEX
  5
2F4
100
AcDbEntity
  8
0
370
               0
390
0
 62
               1
100
AcDbVertex
100
AcDb3dPolylineVertex
 10
622.59734405870347
 20
872.98907859844144
 30
-0.0000000030182406
 70
              32
  0
VERTEX
  5
2F5
100
AcDbEntity
  8
0
370
               0
390
0
 62
               1
100
AcDbVertex
100
AcDb3dPolylineVertex
 10
622.39174854470514
 20
872.55438340658293
 30
-0.0000000030181796
 70
              32
  0
VERTEX
  5
2F6
100
AcDbEntity
  8
0
370
               0
390
0
 62
               1
100
AcDbVertex
100
AcDb3dPolylineVertex
 10
622.22975060892259
 20
872.1016295065408
 30
-0.0000000030181316
 70
              32
  0
VERTEX
  5
2F7
100
AcDbEntity
  8
0
370
               0
390
0
 62
               1
100
AcDbVertex
100
AcDb3dPolylineVertex
 10
622.11291038003458
 20
871.63517716587285
 30
-0.0000000030180969
 70
              32
  0
VERTEX
  5
2F8
100
AcDbEntity
  8
0
370
               0
390
0
 62
               1
100
AcDbVertex
100
AcDb3dPolylineVertex
 10
622.04235309331671
 20
871.15951857560867
 30
-0.000000003018076
 70
              32
  0
VERTEX
  5
2F9
100
AcDbEntity
  8
0
370
               0
390
0
 62
               1
100
AcDbVertex
100
AcDb3dPolylineVertex
 10
622.01875825401044
 20
870.67923458799396
 30
-0.000000003018069
 70
              32
  0
SEQEND
  5
2FA
100
AcDbEntity
  8
0
370
               0
390
0
 62
               1
  0
POLYLINE
  5
2FB
100
AcDbEntity
  8
0
370
               0
390
0
 62
               1
100
AcDb3dPolyline
 66
               1
 10
0.0
 20
0.0
 30
0.0
 70
               8
  0
VERTEX
  5
2FC
100
AcDbEntity
  8
0
370
               0
390
0
 62
               1
100
AcDbVertex
100
AcDb3dPolylineVertex
 10
631.81875825401062
 20
940.67923458799396
 30
-0.0000000030209758
 70
              32
  0
VERTEX
  5
2FD
100
AcDbEntity
  8
0
370
               0
390
0
 62
               1
100
AcDbVertex
100
AcDb3dPolylineVertex
 10
631.79516341470435
 20
941.15951857560867
 30
-0.0000000030209688
 70
              32
  0
VERTEX
  5
2FE
100
AcDbEntity
  8
0
370
               0
390
0
 62
               1
100
AcDbVertex
100
AcDb3dPolylineVertex
 10
631.72460612798648
 20
941.63517716587285
 30
-0.0000000030209479
 70
              32
  0
VERTEX
  5
2FF
100
AcDbEntity
  8
0
370
               0
390
0
 62
               1
100
AcDbVertex
100
AcDb3dPolylineVertex
 10
631.60776589909847
 20
942.1016295065408
 30
-0.0000000030209132
 70
              32
  0
VERTEX
  5
300
100
AcDbEntity
  8
0
370
               0
390
0
 62
               1
100
AcDbVertex
100
AcDb3dPolylineVertex
 10
631.44576796331592
 20
942.55438340658293
 30
-0.0000000030208652
 70
              32
  0
VERTEX
  5
301
100
AcDbEntity
  8
0
370
               0
390
0
 62
               1
100
AcDbVertex
100
AcDb3dPolylineVertex
 10
631.24017244931758
 20
942.98907859844144
 30
-0.0000000030208042
 70
              32
  0
VERTEX
  5
302
100
AcDbEntity
  8
0
370
               0
390
0
 62
               1
100
AcDbVertex
100
AcDb3dPolylineVertex
 10
630.99295935429302
 20
943.40152872979002
 30
-0.0000000030207309
 70
              32
  0
VERTEX
  5
303
100
AcDbEntity
  8
0
370
               0
390
0
 62
               1
100
AcDbVertex
100
AcDb3dPolylineVertex
 10
630.70650947548802
 20
943.78776168039576
 30
-0.0000000030206459
 70
              32
  0
VERTEX
  5
304
100
AcDbEntity
  8
0
370
               0
390
0
 62
               1
100
AcDbVertex
100
AcDb3dPolylineVertex
 10
630.38358148182465
 20
944.14405781580808
 30
-0.0000000030205501
 70
              32
  0
VERTEX
  5
305
100
AcDbEntity
  8
0
370
               0
390
0
 62
               1
100
AcDbVertex
100
AcDb3dPolylineVertex
 10
630.02728534641244
 20
944.46698580947145
 30
-0.0000000030204444
 70
              32
  0
VERTEX
  5
306
100
AcDbEntity
  8
0
370
               0
390
0
 62
               1
100
AcDbVertex
100
AcDb3dPolylineVertex
 10
629.64105239580658
 20
944.75343568827657
 30
-0.0000000030203299
 70
              32
  0
VERTEX
  5
307
100
AcDbEntity
  8
0
370
               0
390
0
 62
               1
100
AcDbVertex
100
AcDb3dPolylineVertex
 10
629.228602264458
 20
945.00064878330113
 30
-0.0000000030202075
 70
              32
  0
VERTEX
  5
308
100
AcDbEntity
  8
0
370
               0
390
0
 62
               1
100
AcDbVertex
100
AcDb3dPolylineVertex
 10
628.7939070725995
 20
945.20624429729924
 30
-0.0000000030200786
 70
              32
  0
VERTEX
  5
309
100
AcDbEntity
  8
0
370
               0
390
0
 62
               1
100
AcDbVertex
100
AcDb3dPolylineVertex
 10
628.34115317255737
 20
945.3682422330819
 30
-0.0000000030199443
 70
              32
  0
VERTEX
  5
30A
100
AcDbEntity
  8
0
370
               0
390
0
 62
               1
100
AcDbVertex
100
AcDb3dPolylineVertex
 10
627.87470083188953
 20
945.4850824619698
 30
-0.000000003019806
 70
              32
  0
VERTEX
  5
30B
100
AcDbEntity
  8
0
370
               0
390
0
 62
               1
100
AcDbVertex
100
AcDb3dPolylineVertex
 10
627.39904224162535
 20
945.55563974868778
 30
-0.0000000030196649
 70
              32
  0
VERTEX
  5
30C
100
AcDbEntity
  8
0
370
               0
390
0
 62
               1
100
AcDbVertex
100
AcDb3dPolylineVertex
 10
626.91875825401053
 20
945.57923458799405
 30
-0.0000000030195224
 70
              32
  0
VERTEX
  5
30D
100
AcDbEntity
  8
0
370
               0
390
0
 62
               1
100
AcDbVertex
100
AcDb3dPolylineVertex
 10
626.4384742663957
 20
945.55563974868778
 30
-0.00000000301938
 70
              32
  0
VERTEX
  5
30E
100
AcDbEntity
  8
0
370
               0
390
0
 62
               1
100
AcDbVertex
100
AcDb3dPolylineVertex
 10
625.96281567613153
 20
945.4850824619698
 30
-0.0000000030192389
 70
              32
  0
VERTEX
  5
30F
100
AcDbEntity
  8
0
370
               0
390
0
 62
               1
100
AcDbVertex
100
AcDb3dPolylineVertex
 10
625.49636333546368
 20
945.3682422330819
 30
-0.0000000030191005
 70
              32
  0
VERTEX
  5
310
100
AcDbEntity
  8
0
370
               0
390
0
 62
               1
100
AcDbVertex
100
AcDb3dPolylineVertex
 10
625.04360943542156
 20
945.20624429729924
 30
-0.0000000030189662
 70
              32
  0
VERTEX
  5
311
100
AcDbEntity
  8
0
370
               0
390
0
 62
               1
100
AcDbVertex
100
AcDb3dPolylineVertex
 10
624.60891424356305
 20
945.00064878330113
 30
-0.0000000030188373
 70
              32
  0
VERTEX
  5
312
100
AcDbEntity
  8
0
370
               0
390
0
 62
               1
100
AcDbVertex
100
AcDb3dPolylineVertex
 10
624.19646411221447
 20
944.75343568827657
 30
-0.0000000030187149
 70
              32
  0
VERTEX
  5
313
100
AcDbEntity
  8
0
370
               0
390
0
 62
               1
100
AcDbVertex
100
AcDb3dPolylineVertex
 10
623.81023116160861
 20
944.46698580947145
 30
-0.0000000030186004
 70
              32
  0
VERTEX
  5
314
100
AcDbEntity
  8
0
370
               0
390
0
 62
               1
100
AcDbVertex
100
AcDb3dPolylineVertex
 10
623.4539350261964
 20
944.14405781580808
 30
-0.0000000030184947
 70
              32
  0
VERTEX
  5
315
100
AcDbEntity
  8
0
370
               0
390
0
 62
               1
100
AcDbVertex
100
AcDb3dPolylineVertex
 10
623.13100703253303
 20
943.78776168039576
 30
-0.0000000030183989
 70
              32
  0
VERTEX
  5
316
100
AcDbEntity
  8
0
370
               0
390
0
 62
               1
100
AcDbVertex
100
AcDb3dPolylineVertex
 10
622.84455715372803
 20
943.40152872979002
 30
-0.0000000030183139
 70
              32
  0
VERTEX
  5
317
100
AcDbEntity
  8
0
370
               0
390
0
 62
               1
100
AcDbVertex
100
AcDb3dPolylineVertex
 10
622.59734405870347
 20
942.98907859844144
 30
-0.0000000030182406
 70
              32
  0
VERTEX
  5
318
100
AcDbEntity
  8
0
370
               0
390
0
 62
               1
100
AcDbVertex
100
AcDb3dPolylineVertex
 10
622.39174854470514
 20
942.55438340658293
 30
-0.0000000030181796
 70
              32
  0
VERTEX
  5
319
100
AcDbEntity
  8
0
370
               0
390
0
 62
               1
100
AcDbVertex
100
AcDb3dPolylineVertex
 10
622.22975060892259
 20
942.1016295065408
 30
-0.0000000030181316
 70
              32
  0
VERTEX
  5
31A
100
AcDbEntity
  8
0
370
               0
390
0
 62
               1
100
AcDbVertex
100
AcDb3dPolylineVertex
 10
622.11291038003458
 20
941.63517716587285
 30
-0.0000000030180969
 70
              32
  0
VERTEX
  5
31B
100
AcDbEntity
  8
0
370
               0
390
0
 62
               1
100
AcDbVertex
100
AcDb3dPolylineVertex
 10
622.04235309331671
 20
941.15951857560867
 30
-0.000000003018076
 70
              32
  0
VERTEX
  5
31C
100
AcDbEntity
  8
0
370
               0
390
0
 62
               1
100
AcDbVertex
100
AcDb3dPolylineVertex
 10
622.01875825401044
 20
940.67923458799396
 30
-0.000000003018069
 70
              32
  0
SEQEND
  5
31D
100
AcDbEntity
  8
0
370
               0
390
0
 62
               1
  0
POLYLINE
  5
31E
100
AcDbEntity
  8
0
370
               0
390
0
 62
               1
100
AcDb3dPolyline
 66
               1
 10
0.0
 20
0.0
 30
0.0
 70
               8
  0
VERTEX
  5
31F
100
AcDbEntity
  8
0
370
               0
390
0
 62
               1
100
AcDbVertex
100
AcDb3dPolylineVertex
 10
656.91875825401053
 20
441.67923458799385
 30
-0.0000000030286174
 70
              32
  0
VERTEX
  5
320
100
AcDbEntity
  8
0
370
               0
390
0
 62
               1
100
AcDbVertex
100
AcDb3dPolylineVertex
 10
656.91875825401053
 20
940.67923458799396
 30
-0.0000000030286174
 70
              32
  0
SEQEND
  5
321
100
AcDbEntity
  8
0
370
               0
390
0
 62
               1
  0
ARC
  5
322
100
AcDbEntity
  8
0
370
               0
390
0
 62
               1
100
AcDbCircle
 10
626.91875825401053
 20
940.67923458799396
 30
0.0
 40
29.999999999999886
100
AcDbArc
 50
0.0
 51
90.0
  0
ARC
  5
323
100
AcDbEntity
  8
0
370
               0
390
0
 62
               1
100
AcDbCircle
 10
626.91875825401053
 20
940.67923458799396
 30
0.0
 40
30.0
100
AcDbArc
 50
90.0
 51
180.0
  0
ARC
  5
324
100
AcDbEntity
  8
0
370
               0
390
0
 62
               1
100
AcDbCircle
 10
600.91875825401235
 20
441.67923458799385
 30
0.0
 40
4.0
100
AcDbArc
 50
180.0
 51
270.0
  0
ARC
  5
325
100
AcDbEntity
  8
0
370
               0
390
0
 62
               1
100
AcDbCircle
 10
652.91875825401235
 20
441.67923458799385
 30
0.0
 40
4.0
100
AcDbArc
 50
270.0
 51
0.0
  0
ARC
  5
326
100
AcDbEntity
  8
0
370
               0
390
0
 62
               1
100
AcDbCircle
 10
626.91875825401053
 20
870.67923458799396
 30
0.0
 40
4.3999999999999773
100
AcDbArc
 50
0.0
 51
180.0
  0
ARC
  5
327
100
AcDbEntity
  8
0
370
               0
390
0
 62
               1
100
AcDbCircle
 10
626.91875825401053
 20
940.67923458799396
 30
0.0
 40
4.3999999999999773
100
AcDbArc
 50
0.0
 51
180.0
  0
ENDBLK
  5
328
100
AcDbEntity
  8
0
390
0
100
AcDbBlockEnd
  0
BLOCK
  5
329
100
AcDbEntity
  8
寸法
390
0
100
AcDbBlockBegin
  2
*D9
 70
               1
 10
0.0
 20
0.0
 30
0.0
  3
*D9
  1

  0
LINE
  5
32A
100
AcDbEntity
  8
寸法
370
              -2
390
0
  6
Continuous
 62
               0
100
AcDbLine
 10
160.49999999999818
 20
740.38888087919986
 30
0.0
 11
160.49999999999818
 21
580.0
 31
0.0
  0
LINE
  5
32B
100
AcDbEntity
  8
寸法
370
              -2
390
0
  6
Continuous
 62
               0
100
AcDbLine
 10
539.49999999999818
 20
740.38888087919986
 30
0.0
 11
539.49999999999818
 21
580.0
 31
0.0
  0
LINE
  5
32C
100
AcDbEntity
  8
寸法
370
              -2
390
0
  6
Continuous
 62
               0
100
AcDbLine
 10
160.49999999999818
 20
620.0
 30
0.0
 11
539.49999999999818
 21
620.0
 31
0.0
  0
POLYLINE
  5
32D
100
AcDbEntity
  8
0
370
              -2
390
0
  6
Continuous
 62
               0
100
AcDb2dPolyline
 66
               1
 10
0.0
 20
0.0
 30
0.0
 75
               5
  0
VERTEX
  5
32E
100
AcDbEntity
  8
0
370
              -2
390
0
  6
Continuous
 62
               0
100
AcDbVertex
100
AcDb2dVertex
 10
210.51245117187318
 20
606.59920409699521
 30
0.0
  0
VERTEX
  5
32F
100
AcDbEntity
  8
0
370
              -2
390
0
  6
Continuous
 62
               0
100
AcDbVertex
100
AcDb2dVertex
 10
160.49999999999818
 20
620.0
 30
0.0
  0
VERTEX
  5
330
100
AcDbEntity
  8
0
370
              -2
390
0
  6
Continuous
 62
               0
100
AcDbVertex
100
AcDb2dVertex
 10
210.51245117187318
 20
633.40079590300491
 30
0.0
  0
SEQEND
  5
331
100
AcDbEntity
  8
0
370
              -2
390
0
  6
Continuous
 62
               0
  0
POLYLINE
  5
332
100
AcDbEntity
  8
0
370
              -2
390
0
  6
Continuous
 62
               0
100
AcDb2dPolyline
 66
               1
 10
0.0
 20
0.0
 30
0.0
 75
               5
  0
VERTEX
  5
333
100
AcDbEntity
  8
0
370
              -2
390
0
  6
Continuous
 62
               0
100
AcDbVertex
100
AcDb2dVertex
 10
489.48754882812318
 20
633.40079590300491
 30
0.0
  0
VERTEX
  5
334
100
AcDbEntity
  8
0
370
              -2
390
0
  6
Continuous
 62
               0
100
AcDbVertex
100
AcDb2dVertex
 10
539.49999999999818
 20
620.0
 30
0.0
  0
VERTEX
  5
335
100
AcDbEntity
  8
0
370
              -2
390
0
  6
Continuous
 62
               0
100
AcDbVertex
100
AcDb2dVertex
 10
489.48754882812318
 20
606.59920409699521
 30
0.0
  0
SEQEND
  5
336
100
AcDbEntity
  8
0
370
              -2
390
0
  6
Continuous
 62
               0
  0
WIPEOUT
  5
337
100
AcDbEntity
  8
寸法
370
              -2
390
0
  6
Continuous
 62
               0
 92
        0
100
AcDbWipeout
 90
        0
 10
275.91666666666481
 20
816.74586332902913
 30
0.0
 11
148.16666666666669
 21
0.0
 31
0.0
 12
0.0
 22
148.16666666666669
 32
0.0
 13
1.0
 23
1.0
340
0
 70
               7
280
               1
281
              50
282
              50
283
               0
360
0
 71
               2
 91
        5
 14
-0.5
 24
1.7603770303421538
 14
0.5000000000000004
 24
1.7603770303421538
 14
0.5000000000000004
 24
1.0937103636754775
 14
-0.5
 24
1.0937103636754775
 14
-0.5
 24
1.7603770303421538
  0
MTEXT
  5
338
100
AcDbEntity
  8
寸法
390
0
 62
               0
100
AcDbMText
 10
275.91666666666481
 20
719.84147569444576
 30
0.0
 40
76.012586805556552
 41
0.0
 71
               1
 72
               1
  1
{\fＭＳ ゴシック|b0|i0|c128|p0;\l379}
 73
               1
 44
0.7828267384257843
  0
POINT
  5
339
100
AcDbEntity
  8
Defpoints
370
               0
390
0
 62
               0
100
AcDbPoint
 10
539.49999999999818
 20
780.38888087919986
 30
0.0
  0
POINT
  5
33A
100
AcDbEntity
  8
Defpoints
370
               0
390
0
 62
               0
100
AcDbPoint
 10
160.49999999999818
 20
780.38888087919986
 30
0.0
  0
POINT
  5
33B
100
AcDbEntity
  8
Defpoints
370
               0
390
0
 62
               0
100
AcDbPoint
 10
160.49999999999818
 20
620.0
 30
0.0
  0
ENDBLK
  5
33C
100
AcDbEntity
  8
寸法
390
0
100
AcDbBlockEnd
  0
BLOCK
  5
33D
100
AcDbEntity
  8
寸法
390
0
100
AcDbBlockBegin
  2
*D10
 70
               1
 10
0.0
 20
0.0
 30
0.0
  3
*D10
  1

  0
LINE
  5
33E
100
AcDbEntity
  8
寸法
370
              -2
390
0
  6
Continuous
 62
               0
100
AcDbLine
 10
124.49999999999818
 20
776.38888087919986
 30
0.0
 11
-50.0
 21
776.38888087919986
 31
0.0
  0
LINE
  5
33F
100
AcDbEntity
  8
寸法
370
              -2
390
0
  6
Continuous
 62
               0
100
AcDbLine
 10
120.49999999999818
 20
1309.3888808791999
 30
0.0
 11
-50.0
 21
1309.3888808791999
 31
0.0
  0
LINE
  5
340
100
AcDbEntity
  8
寸法
370
              -2
390
0
  6
Continuous
 62
               0
100
AcDbLine
 10
-10.0
 20
776.38888087919986
 30
0.0
 11
-10.0
 21
1309.3888808791999
 31
0.0
  0
POLYLINE
  5
341
100
AcDbEntity
  8
0
370
              -2
390
0
  6
Continuous
 62
               0
100
AcDb2dPolyline
 66
               1
 10
0.0
 20
0.0
 30
0.0
 75
               5
  0
VERTEX
  5
342
100
AcDbEntity
  8
0
370
              -2
390
0
  6
Continuous
 62
               0
100
AcDbVertex
100
AcDb2dVertex
 10
3.4007959030049051
 20
826.40133205107486
 30
0.0
  0
VERTEX
  5
343
100
AcDbEntity
  8
0
370
              -2
390
0
  6
Continuous
 62
               0
100
AcDbVertex
100
AcDb2dVertex
 10
-10.0
 20
776.38888087919986
 30
0.0
  0
VERTEX
  5
344
100
AcDbEntity
  8
0
370
              -2
390
0
  6
Continuous
 62
               0
100
AcDbVertex
100
AcDb2dVertex
 10
-23.400795903004905
 20
826.40133205107486
 30
0.0
  0
SEQEND
  5
345
100
AcDbEntity
  8
0
370
              -2
390
0
  6
Continuous
 62
               0
  0
POLYLINE
  5
346
100
AcDbEntity
  8
0
370
              -2
390
0
  6
Continuous
 62
               0
100
AcDb2dPolyline
 66
               1
 10
0.0
 20
0.0
 30
0.0
 75
               5
  0
VERTEX
  5
347
100
AcDbEntity
  8
0
370
              -2
390
0
  6
Continuous
 62
               0
100
AcDbVertex
100
AcDb2dVertex
 10
-23.400795903004905
 20
1259.3764297073249
 30
0.0
  0
VERTEX
  5
348
100
AcDbEntity
  8
0
370
              -2
390
0
  6
Continuous
 62
               0
100
AcDbVertex
100
AcDb2dVertex
 10
-10.0
 20
1309.3888808791999
 30
0.0
  0
VERTEX
  5
349
100
AcDbEntity
  8
0
370
              -2
390
0
  6
Continuous
 62
               0
100
AcDbVertex
100
AcDb2dVertex
 10
3.4007959030049051
 20
1259.3764297073249
 30
0.0
  0
SEQEND
  5
34A
100
AcDbEntity
  8
0
370
              -2
390
0
  6
Continuous
 62
               0
  0
WIPEOUT
  5
34B
100
AcDbEntity
  8
寸法
370
              -2
390
0
  6
Continuous
 62
               0
 92
        0
100
AcDbWipeout
 90
        0
 10
-118.77777777777908
 20
1155.5514108748957
 30
0.0
 11
148.16666666666674
 21
0.0
 31
0.0
 12
0.0
 22
148.16666666666674
 32
0.0
 13
1.0
 23
1.0
340
0
 70
               7
280
               1
281
              50
282
              50
283
               0
360
0
 71
               2
 91
        5
 14
0.1666666666666751
 24
1.7603770303421533
 14
0.1666666666666751
 24
0.7603770303421533
 14
-0.5
 24
0.7603770303421533
 14
-0.5
 24
1.7603770303421533
 14
0.1666666666666751
 24
1.7603770303421533
  0
MTEXT
  5
34C
100
AcDbEntity
  8
寸法
390
0
 62
               0
100
AcDbMText
 10
-109.84147569444565
 20
968.8055475458666
 30
0.0
 40
76.012586805556552
 41
0.0
 71
               1
 72
               1
  1
{\fＭＳ ゴシック|b0|i0|c128|p0;\l533}
 11
0.0
 21
1.0
 31
0.0
 73
               1
 44
0.7828267384257843
  0
POINT
  5
34D
100
AcDbEntity
  8
Defpoints
370
               0
390
0
 62
               0
100
AcDbPoint
 10
160.49999999999818
 20
1309.3888808791999
 30
0.0
  0
POINT
  5
34E
100
AcDbEntity
  8
Defpoints
370
               0
390
0
 62
               0
100
AcDbPoint
 10
164.49999999999818
 20
776.38888087919986
 30
0.0
  0
POINT
  5
34F
100
AcDbEntity
  8
Defpoints
370
               0
390
0
 62
               0
100
AcDbPoint
 10
-10.0
 20
776.38888087919986
 30
0.0
  0
ENDBLK
  5
350
100
AcDbEntity
  8
寸法
390
0
100
AcDbBlockEnd
  0
BLOCK
  5
351
100
AcDbEntity
  8
寸法
390
0
100
AcDbBlockBegin
  2
*D11
 70
               1
 10
0.0
 20
0.0
 30
0.0
  3
*D11
  1

  0
LINE
  5
352
100
AcDbEntity
  8
寸法
370
              -2
390
0
  6
Continuous
 62
               0
100
AcDbLine
 10
1122.3742678742474
 20
740.38888087919986
 30
0.0
 11
1122.3742678742474
 21
580.0
 31
0.0
  0
LINE
  5
353
100
AcDbEntity
  8
寸法
370
              -2
390
0
  6
Continuous
 62
               0
100
AcDbLine
 10
1182.3742678742474
 20
740.38888087919986
 30
0.0
 11
1182.3742678742474
 21
580.0
 31
0.0
  0
LINE
  5
354
100
AcDbEntity
  8
寸法
370
              -2
390
0
  6
Continuous
 62
               0
100
AcDbLine
 10
1182.3742678742474
 20
620.0
 30
0.0
 11
1423.7777777777778
 21
620.0
 31
0.0
  0
LINE
  5
355
100
AcDbEntity
  8
寸法
370
              -2
390
0
  6
Continuous
 62
               0
100
AcDbLine
 10
1122.3742678742474
 20
620.0
 30
0.0
 11
1182.3742678742474
 21
620.0
 31
0.0
  0
POLYLINE
  5
356
100
AcDbEntity
  8
0
370
              -2
390
0
  6
Continuous
 62
               0
100
AcDb2dPolyline
 66
               1
 10
0.0
 20
0.0
 30
0.0
 75
               5
  0
VERTEX
  5
357
100
AcDbEntity
  8
0
370
              -2
390
0
  6
Continuous
 62
               0
100
AcDbVertex
100
AcDb2dVertex
 10
1172.3867190461224
 20
606.59920409699521
 30
0.0
  0
VERTEX
  5
358
100
AcDbEntity
  8
0
370
              -2
390
0
  6
Continuous
 62
               0
100
AcDbVertex
100
AcDb2dVertex
 10
1122.3742678742474
 20
620.0
 30
0.0
  0
VERTEX
  5
359
100
AcDbEntity
  8
0
370
              -2
390
0
  6
Continuous
 62
               0
100
AcDbVertex
100
AcDb2dVertex
 10
1172.3867190461224
 20
633.40079590300491
 30
0.0
  0
SEQEND
  5
35A
100
AcDbEntity
  8
0
370
              -2
390
0
  6
Continuous
 62
               0
  0
POLYLINE
  5
35B
100
AcDbEntity
  8
0
370
              -2
390
0
  6
Continuous
 62
               0
100
AcDb2dPolyline
 66
               1
 10
0.0
 20
0.0
 30
0.0
 75
               5
  0
VERTEX
  5
35C
100
AcDbEntity
  8
0
370
              -2
390
0
  6
Continuous
 62
               0
100
AcDbVertex
100
AcDb2dVertex
 10
1132.3618167023724
 20
633.40079590300491
 30
0.0
  0
VERTEX
  5
35D
100
AcDbEntity
  8
0
370
              -2
390
0
  6
Continuous
 62
               0
100
AcDbVertex
100
AcDb2dVertex
 10
1182.3742678742474
 20
620.0
 30
0.0
  0
VERTEX
  5
35E
100
AcDbEntity
  8
0
370
              -2
390
0
  6
Continuous
 62
               0
100
AcDbVertex
100
AcDb2dVertex
 10
1132.3618167023724
 20
606.59920409699521
 30
0.0
  0
SEQEND
  5
35F
100
AcDbEntity
  8
0
370
              -2
390
0
  6
Continuous
 62
               0
  0
WIPEOUT
  5
360
100
AcDbEntity
  8
寸法
370
              -2
390
0
  6
Continuous
 62
               0
 92
        0
100
AcDbWipeout
 90
        0
 10
1325.0
 20
816.74586332902913
 30
0.0
 11
98.777777777779079
 21
0.0
 31
0.0
 12
0.0
 22
98.777777777779079
 32
0.0
 13
1.0
 23
1.0
340
0
 70
               7
280
               1
281
              50
282
              50
283
               0
360
0
 71
               2
 91
        5
 14
-0.5
 24
2.3905655455132058
 14
0.4999999999999873
 24
2.3905655455132058
 14
0.4999999999999873
 24
1.3905655455132049
 14
-0.5
 24
1.3905655455132049
 14
-0.5
 24
2.3905655455132058
  0
MTEXT
  5
361
100
AcDbEntity
  8
寸法
390
0
 62
               0
100
AcDbMText
 10
1325.0
 20
719.84147569444576
 30
0.0
 40
76.012586805556552
 41
0.0
 71
               1
 72
               1
  1
{\fＭＳ ゴシック|b0|i0|c128|p0;\l60}
 73
               1
 44
0.7828267384257843
  0
POINT
  5
362
100
AcDbEntity
  8
Defpoints
370
               0
390
0
 62
               0
100
AcDbPoint
 10
1182.3742678742474
 20
780.38888087919986
 30
0.0
  0
POINT
  5
363
100
AcDbEntity
  8
Defpoints
370
               0
390
0
 62
               0
100
AcDbPoint
 10
1122.3742678742474
 20
780.38888087919986
 30
0.0
  0
POINT
  5
364
100
AcDbEntity
  8
Defpoints
370
               0
390
0
 62
               0
100
AcDbPoint
 10
1122.3742678742474
 20
620.0
 30
0.0
  0
ENDBLK
  5
365
100
AcDbEntity
  8
寸法
390
0
100
AcDbBlockEnd
  0
BLOCK
  5
366
100
AcDbEntity
  8
0
390
0
100
AcDbBlockBegin
  2
グループ-8
 70
               0
 10
0.0
 20
0.0
 30
0.0
  3
グループ-8
  1

  0
ARC
  5
367
100
AcDbEntity
  8
0
370
               0
390
0
 62
               1
100
AcDbCircle
 10
-35.455509620235034
 20
-155.2096462912059
 30
0.0
 40
6.5000000000002274
100
AcDbArc
 50
270.0
 51
90.0
  0
ARC
  5
368
100
AcDbEntity
  8
0
370
               0
390
0
 62
               1
100
AcDbCircle
 10
-35.455509620235034
 20
-155.2096462912059
 30
0.0
 40
6.5
100
AcDbArc
 50
90.0
 51
270.0
  0
ARC
  5
369
100
AcDbEntity
  8
0
370
               0
390
0
 62
               1
100
AcDbCircle
 10
-315.45550962023503
 20
-155.2096462912059
 30
0.0
 40
6.5000000000002274
100
AcDbArc
 50
270.0
 51
90.0
  0
ARC
  5
36A
100
AcDbEntity
  8
0
370
               0
390
0
 62
               1
100
AcDbCircle
 10
-315.45550962023503
 20
-155.2096462912059
 30
0.0
 40
6.5
100
AcDbArc
 50
90.0
 51
270.0
  0
LINE
  5
36B
100
AcDbEntity
  8
0
370
               0
390
0
 62
               1
100
AcDbLine
 10
14.044490379764966
 20
-185.2096462912059
 30
0.0
 11
11.044490379764966
 21
-185.2096462912059
 31
0.0
  0
LINE
  5
36C
100
AcDbEntity
  8
0
370
               0
390
0
 62
               1
100
AcDbLine
 10
-364.95550962023503
 20
-125.2096462912059
 30
0.0
 11
-361.95550962023503
 21
-125.2096462912059
 31
0.0
  0
LINE
  5
36D
100
AcDbEntity
  8
0
370
               0
390
0
 62
               1
100
AcDbLine
 10
11.044490379764966
 20
-125.2096462912059
 30
0.0
 11
14.044490379764966
 21
-125.2096462912059
 31
0.0
  0
LINE
  5
36E
100
AcDbEntity
  8
0
370
               0
390
0
 62
               1
100
AcDbLine
 10
-361.95550962023503
 20
-185.2096462912059
 30
0.0
 11
-364.95550962023503
 21
-185.2096462912059
 31
0.0
  0
LINE
  5
36F
100
AcDbEntity
  8
0
370
               0
390
0
 62
               1
100
AcDbLine
 10
-360.95550962023503
 20
-125.2096462912059
 30
0.0
 11
-360.95550962023503
 21
-128.2096462912059
 31
0.0
  0
LINE
  5
370
100
AcDbEntity
  8
0
370
               0
390
0
 62
               1
100
AcDbLine
 10
10.044490379764966
 20
-125.2096462912059
 30
0.0
 11
10.044490379764966
 21
-128.2096462912059
 31
0.0
  0
LINE
  5
371
100
AcDbEntity
  8
0
370
               0
390
0
 62
               1
100
AcDbLine
 10
-360.95550962023503
 20
-125.2096462912059
 30
0.0
 11
10.044490379764966
 21
-125.2096462912059
 31
0.0
  0
LINE
  5
372
100
AcDbEntity
  8
0
370
               0
390
0
 62
               1
100
AcDbLine
 10
10.044490379764966
 20
-185.2096462912059
 30
0.0
 11
10.044490379764966
 21
-182.2096462912059
 31
0.0
  0
LINE
  5
373
100
AcDbEntity
  8
0
370
               0
390
0
 62
               1
100
AcDbLine
 10
-360.95550962023503
 20
-185.2096462912059
 30
0.0
 11
-360.95550962023503
 21
-182.2096462912059
 31
0.0
  0
LINE
  5
374
100
AcDbEntity
  8
0
370
               0
390
0
 62
               1
100
AcDbLine
 10
-360.95550962023503
 20
-185.2096462912059
 30
0.0
 11
10.044490379764966
 21
-185.2096462912059
 31
0.0
  0
ARC
  5
375
100
AcDbEntity
  8
0
370
               0
390
0
 62
               1
100
AcDbCircle
 10
-175.45550962023503
 20
-155.2096462912059
 30
0.0
 40
6.5
100
AcDbArc
 50
180.0
 51
0.0
  0
ARC
  5
376
100
AcDbEntity
  8
0
370
               0
390
0
 62
               1
100
AcDbCircle
 10
-175.45550962023503
 20
-155.2096462912059
 30
0.0
 40
6.5
100
AcDbArc
 50
0.0
 51
180.0
  0
LINE
  5
377
100
AcDbEntity
  8
0
370
               0
390
0
 62
               1
100
AcDbLine
 10
10.044490379764966
 20
-181.2096462912059
 30
0.0
 11
11.044490379764966
 21
-181.2096462912059
 31
0.0
  0
LINE
  5
378
100
AcDbEntity
  8
0
370
               0
390
0
 62
               1
100
AcDbLine
 10
11.044490379764966
 20
-129.2096462912059
 30
0.0
 11
10.044490379764966
 21
-129.2096462912059
 31
0.0
  0
LINE
  5
379
100
AcDbEntity
  8
0
370
               0
390
0
 62
               1
100
AcDbLine
 10
-361.95550962023503
 20
-181.2096462912059
 30
0.0
 11
-360.95550962023503
 21
-181.2096462912059
 31
0.0
  0
LINE
  5
37A
100
AcDbEntity
  8
0
370
               0
390
0
 62
               1
100
AcDbLine
 10
-360.95550962023503
 20
-129.2096462912059
 30
0.0
 11
-361.95550962023503
 21
-129.2096462912059
 31
0.0
  0
LINE
  5
37B
100
AcDbEntity
  8
0
370
               0
390
0
 62
               1
100
AcDbLine
 10
-364.95550962023503
 20
-155.2096462912059
 30
0.0
 11
-364.95550962023503
 21
-185.2096462912059
 31
0.0
  0
LINE
  5
37C
100
AcDbEntity
  8
0
370
               0
390
0
 62
               1
100
AcDbLine
 10
-364.95550962023503
 20
-125.2096462912059
 30
0.0
 11
-364.95550962023503
 21
-155.2096462912059
 31
0.0
  0
LINE
  5
37D
100
AcDbEntity
  8
0
370
               0
390
0
 62
               1
100
AcDbLine
 10
14.044490379764966
 20
-155.2096462912059
 30
0.0
 11
14.044490379764966
 21
-125.2096462912059
 31
0.0
  0
LINE
  5
37E
100
AcDbEntity
  8
0
370
               0
390
0
 62
               1
100
AcDbLine
 10
14.044490379764966
 20
-185.2096462912059
 30
0.0
 11
14.044490379764966
 21
-155.2096462912059
 31
0.0
  0
LINE
  5
37F
100
AcDbEntity
  8
0
370
               0
390
0
 62
               1
100
AcDbLine
 10
10.044490379764966
 20
-129.2096462912059
 30
0.0
 11
10.044490379764966
 21
-128.2096462912059
 31
0.0
  0
LINE
  5
380
100
AcDbEntity
  8
0
370
               0
390
0
 62
               1
100
AcDbLine
 10
-360.95550962023503
 20
-128.2096462912059
 30
0.0
 11
-360.95550962023503
 21
-129.2096462912059
 31
0.0
  0
LINE
  5
381
100
AcDbEntity
  8
0
370
               0
390
0
 62
               1
100
AcDbLine
 10
-360.95550962023503
 20
-181.2096462912059
 30
0.0
 11
-360.95550962023503
 21
-182.2096462912059
 31
0.0
  0
LINE
  5
382
100
AcDbEntity
  8
0
370
               0
390
0
 62
               1
100
AcDbLine
 10
10.044490379764966
 20
-182.2096462912059
 30
0.0
 11
10.044490379764966
 21
-181.2096462912059
 31
0.0
  0
LINE
  5
383
100
AcDbEntity
  8
0
370
               0
390
0
  6
Continuous
 62
               1
100
AcDbLine
 10
-361.95550962023503
 20
-125.2096462912059
 30
0.0
 11
-361.95550962023503
 21
-129.2096462912059
 31
0.0
  0
LINE
  5
384
100
AcDbEntity
  8
0
370
               0
390
0
  6
Continuous
 62
               1
100
AcDbLine
 10
-361.95550962023503
 20
-181.2096462912059
 30
0.0
 11
-361.95550962023503
 21
-185.2096462912059
 31
0.0
  0
LINE
  5
385
100
AcDbEntity
  8
0
370
               0
390
0
  6
Continuous
 62
               1
100
AcDbLine
 10
11.044490379764966
 20
-125.2096462912059
 30
0.0
 11
11.044490379764966
 21
-129.2096462912059
 31
0.0
  0
LINE
  5
386
100
AcDbEntity
  8
0
370
               0
390
0
  6
Continuous
 62
               1
100
AcDbLine
 10
11.044490379764966
 20
-181.2096462912059
 30
0.0
 11
11.044490379764966
 21
-185.2096462912059
 31
0.0
  0
ENDBLK
  5
387
100
AcDbEntity
  8
0
390
0
100
AcDbBlockEnd
  0
BLOCK
  5
388
100
AcDbEntity
  8
0
390
0
100
AcDbBlockBegin
  2
Callout
 70
               2
 10
0.0
 20
0.0
 30
0.0
  3
Callout
  1

  0
MTEXT
  5
389
100
AcDbEntity
  8
0
390
0
 62
               1
100
AcDbMText
 10
-106.88368416880346
 20
81.517643339679083
 30
0.0
 40
76.012586805556552
 41
296.58733333333339
 71
               1
 72
               1
  1
{\fＭＳ ゴシック|b0|i0|c128|p0;\lφ12.5}
 11
-0.57577861929093
 21
0.8176056393931186
 31
0.0
 73
               1
 44
0.7828267384257843
  0
LINE
  5
38A
100
AcDbEntity
  8
0
370
               0
390
0
  6
Continuous
 62
               1
100
AcDbLine
 10
-73.123884649948039
 20
103.83591620292611
 30
0.0
 11
0.0
 21
0.0
 31
0.0
  0
LINE
  5
38B
100
AcDbEntity
  8
0
370
               0
390
0
  6
Continuous
 62
               1
100
AcDbLine
 10
0.0
 20
0.0
 30
0.0
 11
123.75839704218681
 21
0.0
 31
0.0
  0
POLYLINE
  5
38C
100
AcDbEntity
  8
0
370
               0
390
0
  6
Continuous
 62
               1
100
AcDb2dPolyline
 66
               1
 10
0.0
 20
0.0
 30
0.0
 75
               5
  0
VERTEX
  5
38D
100
AcDbEntity
  8
0
370
               0
390
0
  6
Continuous
 62
               1
100
AcDbVertex
100
AcDb2dVertex
 10
60.258397042186814
 20
17.014773719376294
 30
0.0
  0
VERTEX
  5
38E
100
AcDbEntity
  8
0
370
               0
390
0
  6
Continuous
 62
               1
100
AcDbVertex
100
AcDb2dVertex
 10
123.75839704218681
 20
0.0
 30
0.0
  0
VERTEX
  5
38F
100
AcDbEntity
  8
0
370
               0
390
0
  6
Continuous
 62
               1
100
AcDbVertex
100
AcDb2dVertex
 10
60.258397042186822
 20
-17.014773719376308
 30
0.0
  0
SEQEND
  5
390
100
AcDbEntity
  8
0
370
               0
390
0
  6
Continuous
 62
               1
  0
ENDBLK
  5
391
100
AcDbEntity
  8
0
390
0
100
AcDbBlockEnd
  0
BLOCK
  5
392
100
AcDbEntity
  8
0
390
0
100
AcDbBlockBegin
  2
Callout-1
 70
               2
 10
0.0
 20
0.0
 30
0.0
  3
Callout-1
  1

  0
MTEXT
  5
393
100
AcDbEntity
  8
0
390
0
 62
               1
100
AcDbMText
 10
-20.673028480047311
 20
-132.82271647054509
 30
0.0
 40
76.012586805555571
 41
296.58733333333339
 71
               1
 72
               1
  1
{\fＭＳ ゴシック|b0|i0|c128|p0;\lφ12.5}
 11
-0.4440201859677168
 21
-0.8960167824617986
 31
0.0
 73
               1
 44
0.7828267384257845
  0
LINE
  5
394
100
AcDbEntity
  8
0
370
               0
390
0
  6
Continuous
 62
               1
100
AcDbLine
 10
-56.390563617899993
 20
-113.79413137264845
 30
0.0
 11
0.0
 21
0.0
 31
0.0
  0
LINE
  5
395
100
AcDbEntity
  8
0
370
               0
390
0
  6
Continuous
 62
               1
100
AcDbLine
 10
0.0
 20
0.0
 30
0.0
 11
188.05451337311746
 21
0.0
 31
0.0
  0
POLYLINE
  5
396
100
AcDbEntity
  8
0
370
               0
390
0
  6
Continuous
 62
               1
100
AcDb2dPolyline
 66
               1
 10
0.0
 20
0.0
 30
0.0
 75
               5
  0
VERTEX
  5
397
100
AcDbEntity
  8
0
370
               0
390
0
  6
Continuous
 62
               1
100
AcDbVertex
100
AcDb2dVertex
 10
124.55451337311746
 20
17.014773719376294
 30
0.0
  0
VERTEX
  5
398
100
AcDbEntity
  8
0
370
               0
390
0
  6
Continuous
 62
               1
100
AcDbVertex
100
AcDb2dVertex
 10
188.05451337311746
 20
0.0
 30
0.0
  0
VERTEX
  5
399
100
AcDbEntity
  8
0
370
               0
390
0
  6
Continuous
 62
               1
100
AcDbVertex
100
AcDb2dVertex
 10
124.55451337311746
 20
-17.014773719376308
 30
0.0
  0
SEQEND
  5
39A
100
AcDbEntity
  8
0
370
               0
390
0
  6
Continuous
 62
               1
  0
ENDBLK
  5
39B
100
AcDbEntity
  8
0
390
0
100
AcDbBlockEnd
  0
ENDSEC
  0
SECTION
  2
ENTITIES
  0
LINE
  5
39C
100
AcDbEntity
  8
HIBINO-BASE
370
               0
390
0
  6
Continuous
 62
               2
100
AcDbLine
 10
-1274.544490379765
 20
3013.5316015843573
 30
0.0
 11
2325.4555096202348
 21
3013.5316015843573
 31
0.0
  0
LINE
  5
39D
100
AcDbEntity
  8
HIBINO-BASE
370
               0
390
0
  6
Continuous
 62
               2
100
AcDbLine
 10
2325.4555096202348
 20
-2186.4683984156418
 30
0.0
 11
-1274.544490379765
 21
-2186.4683984156418
 31
0.0
  0
LINE
  5
39E
100
AcDbEntity
  8
HIBINO-BASE
370
               0
390
0
  6
Continuous
 62
               2
100
AcDbLine
 10
-1274.544490379765
 20
-2186.4683984156418
 30
0.0
 11
-1274.544490379765
 21
3013.5316015843573
 31
0.0
  0
LINE
  5
39F
100
AcDbEntity
  8
HIBINO-BASE
370
               0
390
0
  6
Continuous
 62
               2
100
AcDbLine
 10
2325.4555096202348
 20
3013.5316015843573
 30
0.0
 11
2325.4555096202348
 21
-2186.4683984156418
 31
0.0
  0
LINE
  5
3A0
100
AcDbEntity
  8
HIBINO-BASE
370
               0
390
0
  6
Continuous
 62
               2
100
AcDbLine
 10
525.45550962023503
 20
-1736.4683984156418
 30
0.0
 11
2325.4555096202348
 21
-1736.4683984156418
 31
0.0
  0
LINE
  5
3A1
100
AcDbEntity
  8
HIBINO-BASE
370
               0
390
0
  6
Continuous
 62
               2
100
AcDbLine
 10
525.45550962023503
 20
-2186.4683984156418
 30
0.0
 11
525.45550962023503
 21
-1736.4683984156418
 31
0.0
  0
MTEXT
  5
3A2
100
AcDbEntity
  8
HIBINO-BASE
390
0
 62
               2
100
AcDbMText
 10
543.45550962023503
 20
-1757.8952859156416
 30
0.0
 40
32.576822916666657
 41
0.0
 71
               1
 72
               1
  1
{\fＭＳ ゴシック|b0|i0|c128|p0;\lNOTE}
 73
               1
 44
0.7828267384257843
  0
LINE
  5
3A3
100
AcDbEntity
  8
HIBINO-BASE
370
               0
390
0
  6
Continuous
 62
               2
100
AcDbLine
 10
1225.455509620235
 20
-2186.4683984156418
 30
0.0
 11
1225.455509620235
 21
-1736.4683984156418
 31
0.0
  0
MTEXT
  5
3A4
100
AcDbEntity
  8
HIBINO-BASE
390
0
 62
               2
100
AcDbMText
 10
1243.455509620235
 20
-1757.8952859156416
 30
0.0
 40
32.576822916666657
 41
0.0
 71
               1
 72
               1
  1
{\fＭＳ ゴシック|b0|i0|c128|p0;\lTITLE}
 73
               1
 44
0.7828267384257843
  0
LINE
  5
3A5
100
AcDbEntity
  8
HIBINO-BASE
370
               0
390
0
  6
Continuous
 62
               2
100
AcDbLine
 10
525.45550962023503
 20
-1986.4683984156418
 30
0.0
 11
2325.4555096202348
 21
-1986.4683984156418
 31
0.0
  0
MTEXT
  5
3A6
100
AcDbEntity
  8
HIBINO-BASE
390
0
 62
               2
100
AcDbMText
 10
1493.455509620235
 20
-2006.7688859156406
 30
0.0
 40
32.576822916666657
 41
0.0
 71
               1
 72
               1
  1
{\fＭＳ ゴシック|b0|i0|c128|p0;\lDRAWN}
 73
               1
 44
0.7828267384257843
  0
MTEXT
  5
3A7
100
AcDbEntity
  8
HIBINO-BASE
390
0
 62
               2
100
AcDbMText
 10
993.45550962023503
 20
-2006.7688859156406
 30
0.0
 40
32.576822916666657
 41
0.0
 71
               1
 72
               1
  1
{\fＭＳ ゴシック|b0|i0|c128|p0;\lDATE}
 73
               1
 44
0.7828267384257843
  0
MTEXT
  5
3A8
100
AcDbEntity
  8
HIBINO-BASE
390
0
 62
               2
100
AcDbMText
 10
793.45550962023503
 20
-2006.7688859156406
 30
0.0
 40
32.576822916666657
 41
0.0
 71
               1
 72
               1
  1
{\fＭＳ ゴシック|b0|i0|c128|p0;\lSCALE}
 73
               1
 44
0.7828267384257843
  0
MTEXT
  5
3A9
100
AcDbEntity
  8
HIBINO-BASE
390
0
 62
               2
100
AcDbMText
 10
1243.455509620235
 20
-2006.7688859156406
 30
0.0
 40
32.576822916666657
 41
0.0
 71
               1
 72
               1
  1
{\fＭＳ ゴシック|b0|i0|c128|p0;\lDESIGN}
 73
               1
 44
0.7828267384257843
  0
MTEXT
  5
3AA
100
AcDbEntity
  8
HIBINO-BASE
390
0
 62
               2
100
AcDbMText
 10
1993.455509620235
 20
-2006.7688859156406
 30
0.0
 40
32.576822916666657
 41
0.0
 71
               1
 72
               1
  1
{\fＭＳ ゴシック|b0|i0|c128|p0;\lDRAWING NO.}
 73
               1
 44
0.7828267384257843
  0
MTEXT
  5
3AB
100
AcDbEntity
  8
HIBINO-BASE
390
0
 62
               2
100
AcDbMText
 10
1743.455509620235
 20
-2006.7688859156406
 30
0.0
 40
32.576822916666657
 41
0.0
 71
               1
 72
               1
  1
{\fＭＳ ゴシック|b0|i0|c128|p0;\lCHECK}
 73
               1
 44
0.7828267384257843
  0
LINE
  5
3AC
100
AcDbEntity
  8
HIBINO-BASE
370
               0
390
0
  6
Continuous
 62
               2
100
AcDbLine
 10
812.95550962023481
 20
-2161.4683984156418
 30
0.0
 11
887.95550962023503
 21
-2086.4683984156418
 31
0.0
  0
MTEXT
  5
3AD
100
AcDbEntity
  8
HIBINO-BASE
390
0
 62
               2
100
AcDbMText
 10
820.45550962023481
 20
-2079.9002859156417
 30
0.0
 40
32.576822916666657
 41
0.0
 71
               1
 72
               1
  1
{\fＭＳ ゴシック|b0|i0|c128|p0;\l1}
 73
               1
 44
0.7828267384257843
  0
LINE
  5
3AE
100
AcDbEntity
  8
HIBINO-BASE
370
               0
390
0
  6
Continuous
 62
               2
100
AcDbLine
 10
775.45550962023481
 20
-2186.4683984156418
 30
0.0
 11
775.45550962023481
 21
-1986.4683984156418
 31
0.0
  0
LINE
  5
3AF
100
AcDbEntity
  8
HIBINO-BASE
370
               0
390
0
  6
Continuous
 62
               2
100
AcDbLine
 10
975.45550962023492
 20
-2186.4683984156418
 30
0.0
 11
975.45550962023492
 21
-1986.4683984156418
 31
0.0
  0
LINE
  5
3B0
100
AcDbEntity
  8
HIBINO-BASE
370
               0
390
0
  6
Continuous
 62
               2
100
AcDbLine
 10
1475.455509620235
 20
-1986.4683984156418
 30
0.0
 11
1475.455509620235
 21
-2186.4683984156418
 31
0.0
  0
LINE
  5
3B1
100
AcDbEntity
  8
HIBINO-BASE
370
               0
390
0
  6
Continuous
 62
               2
100
AcDbLine
 10
1975.455509620235
 20
-1986.4683984156418
 30
0.0
 11
1975.455509620235
 21
-2186.4683984156418
 31
0.0
  0
LINE
  5
3B2
100
AcDbEntity
  8
HIBINO-BASE
370
               0
390
0
  6
Continuous
 62
               2
100
AcDbLine
 10
1725.455509620235
 20
-2186.4683984156418
 30
0.0
 11
1725.455509620235
 21
-1986.4683984156418
 31
0.0
  0
MTEXT
  5
3B3
100
AcDbEntity
  8
HIBINO-BASE
390
0
 62
               2
100
AcDbMText
 10
1012.5863096202348
 20
-2100.4484859156419
 30
0.0
 40
32.576822916666657
 41
0.0
 71
               1
 72
               1
  1
{\fＭＳ ゴシック|b0|i0|c128|p0;\l2021.12}
 73
               1
 44
0.7828267384257843
  0
MTEXT
  5
3B4
100
AcDbEntity
  8
HIBINO-BASE
390
0
 62
               2
100
AcDbMText
 10
875.45550962023503
 20
-2117.4002859156417
 30
0.0
 40
32.576822916666657
 41
0.0
 71
               1
 72
               1
  1
{\fＭＳ ゴシック|b0|i0|c128|p0;\l20}
 73
               1
 44
0.7828267384257843
  0
MTEXT
  5
3B5
100
AcDbEntity
  8
HIBINO-BASE
390
0
 62
               2
100
AcDbMText
 10
603.122176286902
 20
-2089.4544400823092
 30
0.0
 40
65.153645833333329
 41
0.0
 71
               1
 72
               1
  1
{\fＭＳ ゴシック|b0|i0|c128|p0;\lA4}
 73
               1
 44
0.7828267384257843
  0
MTEXT
  5
3B6
100
AcDbEntity
  8
HIBINO-BASE
390
0
 62
               2
100
AcDbMText
 10
544.62217628690166
 20
-2010.1105192489749
 30
0.0
 40
32.576822916666657
 41
0.0
 71
               1
 72
               1
  1
{\fＭＳ ゴシック|b0|i0|c128|p0;\lPAPER SIZE}
 73
               1
 44
0.7828267384257843
  0
MTEXT
  5
3B7
100
AcDbEntity
  8
HIBINO-BASE
390
0
 62
               2
100
AcDbMText
 10
-1219.3517852419609
 20
-2252.6880815713894
 30
0.0
 40
70.583116319444443
 41
0.0
 71
               1
 72
               1
  1
{\fＭＳ ゴシック|b0|i0|c128|p0;\lHibino-Intersound Corporation}
 73
               1
 44
0.7828267384257843
  0
MTEXT
  5
3B8
100
AcDbEntity
  8
HIBINO-BASE
390
0
 62
               2
100
AcDbMText
 10
929.06770322451302
 20
-2245.6663165056007
 30
0.0
 40
70.583116319444443
 41
0.0
 71
               1
 72
               1
  1
{\fＭＳ ゴシック|b0|i0|c128|p0;\lヒビノインタ ーサウンド株式会社}
 73
               1
 44
0.7828267384257843
  0
LINE
  5
3B9
100
AcDbEntity
  8
SPEC
370
               0
390
0
  6
Continuous
 62
               2
100
AcDbLine
 10
-1124.544490379765
 20
2773.5316015843582
 30
0.0
 11
2125.4555096202348
 21
2773.5316015843582
 31
0.0
  0
LINE
  5
3BA
100
AcDbEntity
  8
SPEC
370
               0
390
0
  6
Continuous
 62
               2
100
AcDbLine
 10
-1124.544490379765
 20
2698.5316015843582
 30
0.0
 11
2125.4555096202348
 21
2698.5316015843582
 31
0.0
  0
LINE
  5
3BB
100
AcDbEntity
  8
SPEC
370
               0
390
0
  6
Continuous
 62
               2
100
AcDbLine
 10
-1124.544490379765
 20
2773.5316015843582
 30
0.0
 11
-1124.544490379765
 21
2323.5316015843582
 31
0.0
  0
MTEXT
  5
3BC
100
AcDbEntity
  8
SPEC
390
0
 62
               2
100
AcDbMText
 10
-1099.544490379765
 20
2884.5174703343578
 30
0.0
 40
48.865234375000007
 41
0.0
 71
               1
 72
               1
  1
{\fＭＳ ゴシック|b0|i0|c128|p0;\l仕様}
 73
               1
 44
0.7828267384257845
  0
LINE
  5
3BD
100
AcDbEntity
  8
SPEC
370
               0
390
0
  6
Continuous
 62
               2
100
AcDbLine
 10
-474.54449037976474
 20
2773.5316015843582
 30
0.0
 11
-474.54449037976474
 21
2323.5316015843582
 31
0.0
  0
LINE
  5
3BE
100
AcDbEntity
  8
SPEC
370
               0
390
0
  6
Continuous
 62
               2
100
AcDbLine
 10
2125.4555096202348
 20
2773.5316015843582
 30
0.0
 11
2125.4555096202348
 21
2323.5316015843582
 31
0.0
  0
LINE
  5
3BF
100
AcDbEntity
  8
SPEC
370
               0
390
0
  6
Continuous
 62
               2
100
AcDbLine
 10
-1124.544490379765
 20
2623.5316015843582
 30
0.0
 11
2125.4555096202348
 21
2623.5316015843582
 31
0.0
  0
LINE
  5
3C0
100
AcDbEntity
  8
SPEC
370
               0
390
0
  6
Continuous
 62
               2
100
AcDbLine
 10
-1124.544490379765
 20
2548.5316015843582
 30
0.0
 11
2125.4555096202348
 21
2548.5316015843582
 31
0.0
  0
LINE
  5
3C1
100
AcDbEntity
  8
SPEC
370
               0
390
0
  6
Continuous
 62
               2
100
AcDbLine
 10
-1124.544490379765
 20
2473.5316015843582
 30
0.0
 11
2125.4555096202348
 21
2473.5316015843582
 31
0.0
  0
MTEXT
  5
3C2
100
AcDbEntity
  8
SPEC
390
0
 62
               2
100
AcDbMText
 10
-1109.1809592537109
 20
2673.5225509867741
 30
0.0
 40
38.006293402777793
 41
0.0
 71
               1
 72
               1
  1
{\fＭＳ ゴシック|b0|i0|c128|p0;\l本体}
 73
               1
 44
0.7828267384257843
  0
MTEXT
  5
3C3
100
AcDbEntity
  8
SPEC
390
0
 62
               2
100
AcDbMText
 10
-456.18199831228787
 20
2523.8828876510343
 30
0.0
 40
38.006293402777793
 41
0.0
 71
               1
 72
               1
  1
{\fＭＳ ゴシック|b0|i0|c128|p0;\l図面表記をご参照ください。}
 73
               1
 44
0.7828267384257843
  0
MTEXT
  5
3C4
100
AcDbEntity
  8
SPEC
390
0
 62
               2
100
AcDbMText
 10
-456.12579259726738
 20
2600.1142178456212
 30
0.0
 40
38.006293402777793
 41
0.0
 71
               1
 72
               1
  1
{\fＭＳ ゴシック|b0|i0|c128|p0;\l塗装：黒色}
 73
               1
 44
0.7828267384257843
  0
MTEXT
  5
3C5
100
AcDbEntity
  8
SPEC
390
0
 62
               2
100
AcDbMText
 10
-1103.8754070625062
 20
2594.9238597066392
 30
0.0
 40
38.006293402777793
 41
0.0
 71
               1
 72
               1
  1
{\fＭＳ ゴシック|b0|i0|c128|p0;\l仕上げ}
 73
               1
 44
0.7828267384257843
  0
MTEXT
  5
3C6
100
AcDbEntity
  8
SPEC
390
0
 62
               2
100
AcDbMText
 10
-1107.9469472396329
 20
2749.2218091302275
 30
0.0
 40
38.006293402777793
 41
0.0
 71
               1
 72
               1
  1
{\fＭＳ ゴシック|b0|i0|c128|p0;\l形式}
 73
               1
 44
0.7828267384257843
  0
MTEXT
  5
3C7
100
AcDbEntity
  8
SPEC
390
0
 62
               2
100
AcDbMText
 10
-1108.1628994380419
 20
2526.8761327614961
 30
0.0
 40
38.006293402777793
 41
0.0
 71
               1
 72
               1
  1
{\fＭＳ ゴシック|b0|i0|c128|p0;\l寸法}
 73
               1
 44
0.7828267384257843
  0
MTEXT
  5
3C8
100
AcDbEntity
  8
SPEC
390
0
 62
               2
100
AcDbMText
 10
-1108.057571622232
 20
2452.1535081644324
 30
0.0
 40
38.006293402777793
 41
0.0
 71
               1
 72
               1
  1
{\fＭＳ ゴシック|b0|i0|c128|p0;\l重量}
 73
               1
 44
0.7828267384257843
  0
MTEXT
  5
3C9
100
AcDbEntity
  8
SPEC
390
0
 62
               2
100
AcDbMText
 10
-457.4247394191716
 20
2677.3926140176413
 30
0.0
 40
38.006293402777793
 41
558.48005363358243
 71
               1
 72
               1
  1
{\fＭＳ ゴシック|b0|i0|c128|p0;\l炭素鋼}
 73
               1
 44
0.7828267384257843
  0
MTEXT
  5
3CA
100
AcDbEntity
  8
SPEC
390
0
 62
               2
100
AcDbMText
 10
-454.79955617746714
 20
2751.4459271512023
 30
0.0
 40
38.006293402777786
 41
0.0
 71
               1
 72
               1
  1
{\fＭＳ ゴシック|b0|i0|c128|p0;\l固定設備及び仮設イベント用 HOPS12i縦向き天吊り金具}
 73
               1
 44
0.7828267384257845
  0
LINE
  5
3CB
100
AcDbEntity
  8
SPEC
370
               0
390
0
  6
Continuous
 62
               2
100
AcDbLine
 10
-1124.544490379765
 20
2398.5316015843582
 30
0.0
 11
2125.4555096202348
 21
2398.5316015843582
 31
0.0
  0
MTEXT
  5
3CC
100
AcDbEntity
  8
DIMNSIONS
390
0
 62
               2
100
AcDbMText
 10
-851.12316655585505
 20
-117.24476562499996
 30
0.0
 40
48.865234375000007
 41
0.0
 71
               1
 72
               1
  1
{\fＭＳ ゴシック|b0|i0|c128|p0;\l(単位：mm)}
 73
               1
 44
0.7828267384257845
  0
MTEXT
  5
3CD
100
AcDbEntity
  8
DATA
390
0
 62
               2
100
AcDbMText
 10
-1074.544490379765
 20
-2072.9614192489744
 30
0.0
 40
32.576822916666657
 41
0.0
 71
               1
 72
               1
  1
{\fＭＳ ゴシック|b0|i0|c128|p0;\l仕様および外観は予告なく変更されることがあります、ご了承ください。}
 73
               1
 44
0.7828267384257843
  0
MTEXT
  5
3CE
100
AcDbEntity
  8
DATA
390
0
 62
               2
100
AcDbMText
 10
1765.1279844107639
 20
-1816.3788226305774
 30
0.0
 40
48.865234375000007
 41
821.8546596072938
 71
               2
 72
               1
  1
{\fＭＳ ゴシック|b0|i0|c128|p0;\lCODA AUDIO\PH12V}
 73
               1
 44
0.7828267384257845
  0
MTEXT
  5
3CF
100
AcDbEntity
  8
HIBINO-BASE
390
0
 62
               2
100
AcDbMText
 10
1500.455509620235
 20
-2072.437552168094
 30
0.0
 40
32.576822916666664
 41
200.0
 71
               1
 72
               1
  1
{\fＭＳ ゴシック|b0|i0|c128|p0;\lKojima\P \fＭＳ ゴシック|b0|i0|c128|p0;\lShohei}
 73
               1
 44
0.7828267384257843
  0
INSERT
  5
3D0
100
AcDbEntity
  8
0
390
0
 62
               1
100
AcDbBlockReference
  2
グループ-3
 10
525.45550962023503
 20
338.70964629120596
 30
0.0
  0
LINE
  5
3D1
100
AcDbEntity
  8
SPEC
370
               0
390
0
  6
Continuous
 62
               2
100
AcDbLine
 10
-1124.544490379765
 20
2323.5316015843582
 30
0.0
 11
2125.4555096202348
 21
2323.5316015843582
 31
0.0
  0
MTEXT
  5
3D2
100
AcDbEntity
  8
SPEC
390
0
 62
               2
100
AcDbMText
 10
-1108.057571622232
 20
2377.1535081644324
 30
0.0
 40
38.006293402777793
 41
0.0
 71
               1
 72
               1
  1
{\fＭＳ ゴシック|b0|i0|c128|p0;\l付属品}
 73
               1
 44
0.7828267384257843
  0
MTEXT
  5
3D3
100
AcDbEntity
  8
0
390
0
 62
               1
100
AcDbMText
 10
1478.1876869019702
 20
-640.32635416666676
 30
0.0
 40
65.153645833333329
 41
0.0
 71
               1
 72
               1
  1
{\fＭＳ ゴシック|b0|i0|c128|p0;\l参考}
 73
               1
 44
0.7828267384257843
  0
MTEXT
  5
3D4
100
AcDbEntity
  8
SPEC
390
0
 62
               2
100
AcDbMText
 10
-456.18199831228787
 20
2448.8828876510343
 30
0.0
 40
38.006293402777793
 41
0.0
 71
               1
 72
               1
  1
{\fＭＳ ゴシック|b0|i0|c128|p0;\l図面表記をご参照ください。}
 73
               1
 44
0.7828267384257843
  0
MTEXT
  5
3D5
100
AcDbEntity
  8
SPEC
390
0
 62
               2
100
AcDbMText
 10
-456.18199831228787
 20
2373.8828876510343
 30
0.0
 40
38.006293402777793
 41
0.0
 71
               1
 72
               1
  1
{\fＭＳ ゴシック|b0|i0|c128|p0;\lスピーカーキャビネット取り付けネジ}
 73
               1
 44
0.7828267384257843
  0
MTEXT
  5
3D6
100
AcDbEntity
  8
0
390
0
 62
               1
100
AcDbMText
 10
1488.333319875929
 20
357.34031250000004
 30
0.0
 40
65.153645833333329
 41
0.0
 71
               1
 72
               1
  1
{\fＭＳ ゴシック|b0|i0|c128|p0;\l重量　約2.25kg}
 73
               1
 44
0.7828267384257843
  0
INSERT
  5
3D7
100
AcDbEntity
  8
0
390
0
 62
               1
100
AcDbBlockReference
  2
グループ-4
 10
525.45550962023503
 20
338.70964629120596
 30
0.0
  0
INSERT
  5
3D8
100
AcDbEntity
  8
0
390
0
 62
               1
100
AcDbBlockReference
  2
グループ-5
 10
525.45550962023503
 20
338.70964629120596
 30
0.0
  0
INSERT
  5
3D9
100
AcDbEntity
  8
0
390
0
 62
               1
100
AcDbBlockReference
  2
グループ-6
 10
525.45550962023503
 20
338.70964629120596
 30
0.0
  0
INSERT
  5
3DA
100
AcDbEntity
  8
0
390
0
 62
               1
100
AcDbBlockReference
  2
グループ-7
 10
525.45550962023503
 20
338.70964629120596
 30
0.0
  0
DIMENSION
  5
3DB
100
AcDbEntity
  8
寸法
370
               0
390
0
  6
Continuous
 62
               1
100
AcDbDimension
  2
*D9
 10
160.49999999999818
 20
620.0
 30
0.0
 11
349.99999999999818
 21
620.0
 31
0.0
 71
               5
 72
               1
 41
1.0
 42
0.0
  3
HIBINO
100
AcDbAlignedDimension
 13
539.49999999999818
 23
780.38888087919986
 33
0.0
 14
160.49999999999818
 24
780.38888087919986
 34
0.0
100
AcDbRotatedDimension
1001
ACAD
1000
DSTYLE
1002
{
1070
             279
1070
               2
1070
             340
1005
32
1070
             147
1040
10.0
1002
}
  0
DIMENSION
  5
3DC
100
AcDbEntity
  8
寸法
370
               0
390
0
  6
Continuous
 62
               1
100
AcDbDimension
  2
*D10
 10
-10.0
 20
776.38888087919986
 30
0.0
 11
-10.0
 21
1042.8888808791999
 31
0.0
 71
               5
 72
               1
 41
1.0
 42
0.0
  3
HIBINO
100
AcDbAlignedDimension
 13
160.49999999999818
 23
1309.3888808791999
 33
0.0
 14
164.49999999999818
 24
776.38888087919986
 34
0.0
 50
-90.0
100
AcDbRotatedDimension
1001
ACAD
1000
DSTYLE
1002
{
1070
             279
1070
               2
1070
             340
1005
32
1070
             147
1040
10.0
1002
}
  0
DIMENSION
  5
3DD
100
AcDbEntity
  8
寸法
370
               0
390
0
  6
Continuous
 62
               1
100
AcDbDimension
  2
*D11
 10
1122.3742678742474
 20
620.0
 30
0.0
 11
1325.0
 21
630.0
 31
0.0
 70
             128
 71
               5
 72
               1
 41
1.0
 42
0.0
  3
HIBINO
100
AcDbAlignedDimension
 13
1182.3742678742474
 23
780.38888087919986
 33
0.0
 14
1122.3742678742474
 24
780.38888087919986
 34
0.0
100
AcDbRotatedDimension
1001
ACAD
1000
DSTYLE
1002
{
1070
             279
1070
               2
1070
             340
1005
32
1070
             174
1070
               0
1070
             147
1040
10.0
1002
}
  0
INSERT
  5
3DE
100
AcDbEntity
  8
0
390
0
 62
               1
100
AcDbBlockReference
  2
グループ-8
 10
525.45550962023503
 20
338.70964629120596
 30
0.0
  0
INSERT
  5
3DF
100
AcDbEntity
  8
0
390
0
 62
               1
100
AcDbBlockReference
  2
Callout
 10
565.0
 20
370.0
 30
0.0
 50
-125.15417763214747
  0
INSERT
  5
3E0
100
AcDbEntity
  8
0
390
0
 62
               1
100
AcDbBlockReference
  2
Callout-1
 10
440.0
 20
15.0
 30
0.0
 50
116.36066757485656
  0
MTEXT
  5
3E1
100
AcDbEntity
  8
0
390
0
 62
               1
100
AcDbMText
 10
550.0
 20
-57.141592247073447
 30
0.0
 40
54.294704861111114
 41
1625.455509620235
 71
               1
 72
               1
  1
{\fＭＳ ゴシック|b0|i0|c128|p0;\l※このポイントのみ裏面に補強リング有り。}
 73
               1
 44
0.7828267384257843
  0
ENDSEC
  0
SECTION
  2
OBJECTS
  0
DICTIONARY
  5
19
100
AcDbDictionary
280
               0
281
               1
  3
ACAD_GROUP
350
1A
  3
ACAD_MLINESTYLE
350
1B
  3
ACAD_LAYOUT
350
1E
  3
ACAD_PLOTSETTINGS
350
22
  3
ACAD_PLOTSTYLENAME
350
1F
  3
ACAD_WIPEOUT_VARS
350
23
  0
DICTIONARY
  5
1A
102
{ACAD_REACTORS
330
19
102
}
100
AcDbDictionary
280
               0
281
               1
  0
DICTIONARY
  5
1B
102
{ACAD_REACTORS
330
19
102
}
100
AcDbDictionary
280
               0
281
               1
  3
Standard
350
1C
  0
MLINESTYLE
  5
1C
102
{ACAD_REACTORS
330
1B
102
}
100
AcDbMlineStyle
  2
Standard
 70
               0
  3

 62
               0
 51
90.0
 52
90.0
 71
               2
 49
0.5
 62
             256
  6
ByLayer
 49
-0.5
 62
             256
  6
ByLayer
  0
ACDBDICTIONARYWDFLT
  5
1F
102
{ACAD_REACTORS
330
19
102
}
100
AcDbDictionary
281
               1
  3
Normal
350
1D
100
AcDbDictionaryWithDefault
340
1D
  0
ACDBPLACEHOLDER
  5
1D
102
{ACAD_REACTORS
330
1F
102
}
  0
LAYOUT
  5
20
102
{ACAD_REACTORS
330
1E
102
}
100
AcDbPlotSettings
  1

  2

  4

  6

 40
0.0
 41
0.0
 42
0.0
 43
0.0
 44
0.0
 45
0.0
 46
0.0
 47
0.0
 48
0.0
 49
0.0
140
0.0
141
0.0
142
1.0
143
1.0
 70
            1024
 72
               0
 73
               0
 74
               0
  7
H12V.ctb
 75
               0
147
1.0
148
0.0
149
0.0
100
AcDbLayout
  1
Model
 70
               0
 71
               0
 10
0.0
 20
0.0
 11
0.0
 21
0.0
 12
0.0
 22
0.0
 32
0.0
 14
0.0
 24
0.0
 34
0.0
 15
0.0
 25
0.0
 35
0.0
146
0.0
 13
0.0
 23
0.0
 33
0.0
 16
0.0
 26
0.0
 36
0.0
 17
0.0
 27
0.0
 37
0.0
 76
               0
330
A
331
0
345
0
346
0
  0
LAYOUT
  5
21
102
{ACAD_REACTORS
330
1E
102
}
100
AcDbPlotSettings
  1

  2

  4

  6

 40
0.0
 41
0.0
 42
0.0
 43
0.0
 44
0.0
 45
0.0
 46
0.0
 47
0.0
 48
0.0
 49
0.0
140
0.0
141
0.0
142
1.0
143
1.0
 70
               0
 72
               0
 73
               0
 74
               0
  7

 75
               0
147
1.0
148
0.0
149
0.0
100
AcDbLayout
  1
Layout1
 70
               0
 71
               0
 10
0.0
 20
0.0
 11
0.0
 21
0.0
 12
0.0
 22
0.0
 32
0.0
 14
0.0
 24
0.0
 34
0.0
 15
0.0
 25
0.0
 35
0.0
146
0.0
 13
0.0
 23
0.0
 33
0.0
 16
0.0
 26
0.0
 36
0.0
 17
0.0
 27
0.0
 37
0.0
 76
               0
330
B
331
0
345
0
346
0
  0
DICTIONARY
  5
1E
102
{ACAD_REACTORS
330
19
102
}
100
AcDbDictionary
280
               0
281
               1
  3
Layout1
350
21
  3
Model
350
20
  0
DICTIONARY
  5
22
102
{ACAD_REACTORS
330
19
102
}
100
AcDbDictionary
280
               0
281
               1
  0
WIPEOUTVARIABLES
  5
23
100
AcDbWipeoutVariables
 70
               0
  0
ENDSEC
  0
EOF
